<?xml version="1.0" standalone="no"?>
<!DOCTYPE svg PUBLIC "-//W3C//DTD SVG 1.1//EN" "http://www.w3.org/Graphics/SVG/1.1/DTD/svg11.dtd">
<svg xmlns="http://www.w3.org/2000/svg">
<defs >
<font id="IBMPlexSans" horiz-adv-x="589" ><font-face
    font-family="IBM Plex Sans"
    units-per-em="1000"
    panose-1="2 11 5 3 5 2 3 0 2 3"
    ascent="1025"
    descent="-275"
    alphabetic="0" />
<glyph unicode=" " glyph-name="space" horiz-adv-x="236" />
<glyph unicode="!" glyph-name="exclam" horiz-adv-x="284" d="M122 185L98 495V698H186V495L162 185H122ZM142 -12Q110 -12 96 4T81 46V59Q81 85 95 101T142 117Q174 117 188 101T203 59V46Q203 20 189 4T142 -12Z" />
<glyph unicode="&quot;" glyph-name="quotedbl" horiz-adv-x="419" d="M85 460V740H157V460H85ZM262 460V740H334V460H262Z" />
<glyph unicode="#" glyph-name="numbersign" horiz-adv-x="713" d="M406 205H252L216 0H152L188 205H60V265H198L226 433H99V493H237L272 698H336L301 493H455L490 698H554L519 493H647V433H508L480 265H608V205H470L434 0H370L406 205ZM416 265L444 433H290L262
265H416Z" />
<glyph unicode="$" glyph-name="dollar" horiz-adv-x="598" d="M270 -82V0Q194 5 142 37T52 119L111 172Q143 129 181 104T271 71V328Q168 351 121 395T73 518Q73 558 87 589T128 644T190 680T270 698V780H332V699Q400 693 449 665T535 586L474 540Q449 575 414
597T331 627V393L340 391Q444 368 491 324T539 200Q539 114 484 62T332 0V-82H270ZM460 195Q460 246 431 273T331 317V71Q391 79 425 111T460 195ZM152 524Q152 473 181 448T271 406V627Q217 620 185 594T152 524Z" />
<glyph unicode="%" glyph-name="percent" horiz-adv-x="927" d="M183 0L667 698H744L260 0H183ZM223 314Q147 314 106 364T65 512Q65 609 106 659T223 710Q299 710 340 660T381 512Q381 415 340 365T223 314ZM223 366Q309 366 309 482V542Q309 658 223 658Q137
658 137 542V482Q137 366 223 366ZM704 -12Q628 -12 587 38T546 186Q546 283 587 333T704 384Q780 384 821 334T862 186Q862 89 821 39T704 -12ZM704 40Q790 40 790 156V216Q790 332 704 332Q618 332 618 216V156Q618 40 704 40Z" />
<glyph unicode="&amp;" glyph-name="ampersand" horiz-adv-x="694" d="M489 82Q478 69 461 53T420 22T362 -2T286 -12Q234 -12 194 3T127 44T86 106T72 181Q72 220 84 250T116 303T162 345T215 378Q179 416 158 455T136 542Q136 577 149 608T185 661T242 697T317
710Q354 710 385 699T438 669T472 621T485 560Q485 525 473 498T438 447T387 405T325 367L482 198Q497 236 505 279T515 367H651V299H580Q573 255 561 217T532 145L668 0H564L489 82ZM313 643Q270 643 243 616T215 549V537Q215 507 233 477T282 412Q306 425 328
439T368 471T397 506T408 546V558Q408 599 380 621T313 643ZM293 58Q344 58 381 77T444 130L257 332Q237 321 219 309T186 281T164 243T155 192V177Q155 122 192 90T293 58Z" />
<glyph unicode="&apos;" glyph-name="quotesingle" horiz-adv-x="242" d="M85 460V740H157V460H85Z" />
<glyph unicode="(" glyph-name="parenleft" horiz-adv-x="335" d="M83 312Q83 384 97 451T135 575T193 680T264 760H340Q298 722 265 674T208 572T171 462T158 354V268Q158 215 171 159T208 49T265 -53T340 -137H264Q227 -106 194 -59T137 46T98 171T83 312Z" />
<glyph unicode=")" glyph-name="parenright" horiz-adv-x="335" d="M252 312Q252 239 238 172T199 46T141 -59T71 -137H-5Q36 -101 69 -53T127 49T164 159T177 268V354Q177 406 164 462T128 572T71 674T-5 760H71Q109 727 142 680T199 576T238 451T252 312Z" />
<glyph unicode="*" glyph-name="asterisk" horiz-adv-x="450" d="M143 388L87 429L178 545L36 584L58 651L196 600L190 747H260L254 600L392 651L414 584L272 545L363 429L307 388L225 511L143 388Z" />
<glyph unicode="+" glyph-name="plus" horiz-adv-x="600" d="M262 62V271H67V339H262V548H338V339H533V271H338V62H262Z" />
<glyph unicode="," glyph-name="comma" horiz-adv-x="272" d="M136 117Q168 117 182 101T197 58V44Q197 3 173 -46T106 -133H39Q69 -101 87 -73T114 -9Q94 -4 85 10T75 44V58Q75 84 89 100T136 117Z" />
<glyph unicode="-" glyph-name="hyphen" horiz-adv-x="399" d="M69 261V347H330V261H69Z" />
<glyph unicode="." glyph-name="period" horiz-adv-x="272" d="M136 -12Q104 -12 90 4T75 46V59Q75 85 89 101T136 117Q168 117 182 101T197 59V46Q197 20 183 4T136 -12Z" />
<glyph unicode="/" glyph-name="slash" horiz-adv-x="383" d="M9 -151L270 740H342L81 -151H9Z" />
<glyph unicode="0" glyph-name="zero" horiz-adv-x="600" d="M300 -12Q175 -12 118 83T60 349Q60 520 117 615T300 710Q425 710 482 615T540 349Q540 178 483 83T300 -12ZM300 61Q341 61 370 78T417 126T443 199T452 292V406Q452 457 444 499T417 572T370 620T300
637Q259 637 230 620T183 572T157 499T148 406V292Q148 241 156 199T183 126T230 78T300 61Z" />
<glyph unicode="1" glyph-name="one" horiz-adv-x="600" d="M88 0V74H283V636H276L100 472L51 525L236 698H367V74H547V0H88Z" />
<glyph unicode="2" glyph-name="two" horiz-adv-x="600" d="M533 0H75V86L303 296Q352 341 385 391T418 493V505Q418 563 386 599T289 635Q257 635 233 626T192 601T163 564T144 517L69 546Q79 577 96 606T140 659T204 696T293 710Q344 710 384 695T451 653T492
589T507 507Q507 466 496 431T464 365T416 303T354 243L166 74H533V0Z" />
<glyph unicode="3" glyph-name="three" horiz-adv-x="600" d="M261 402Q332 402 367 434T403 518V525Q403 580 369 607T278 635Q224 635 190 612T134 548L72 596Q85 617 103 637T147 674T205 700T280 710Q324 710 363 699T430 665T475 609T492 534Q492 500 482
473T453 426T411 392T358 371V367Q386 361 412 348T459 313T492 261T505 191Q505 146 488 109T440 45T365 3T268 -12Q223 -12 188 -2T126 25T79 63T42 107L105 155Q118 134 133 117T168 88T211 70T267 63Q341 63 379 96T417 192V200Q417 262 379 295T267 329H185V402H261Z"
/>
<glyph unicode="4" glyph-name="four" horiz-adv-x="600" d="M375 0V137H38V211L330 698H455V207H556V137H455V0H375ZM117 207H375V633H370L117 207Z" />
<glyph unicode="5" glyph-name="five" horiz-adv-x="600" d="M498 624H192L172 358H179Q204 393 235 414T322 435Q367 435 405 420T471 378T514 310T530 219Q530 168 514 126T468 53T394 5T295 -12Q251 -12 218 -2T158 25T113 63T77 107L140 155Q153 134 167 117T199
88T240 70T295 63Q367 63 404 101T441 208V218Q441 287 404 325T295 363Q247 363 220 346T170 304L99 314L124 698H498V624Z" />
<glyph unicode="6" glyph-name="six" horiz-adv-x="600" d="M301 -12Q247 -12 204 6T130 59T83 144T67 256Q67 334 90 402T149 527T230 627T316 698H424Q368 657 324 618T247 537T191 446T154 336L159 334Q184 377 223 405T327 434Q372 434 410 419T475 376T517
308T533 219Q533 168 517 126T470 53T396 5T301 -12ZM300 61Q369 61 407 99T446 208V216Q446 287 408 325T300 363Q231 363 193 325T154 216V208Q154 137 192 99T300 61Z" />
<glyph unicode="7" glyph-name="seven" horiz-adv-x="600" d="M175 0L442 626H144V496H69V698H527V624L265 0H175Z" />
<glyph unicode="8" glyph-name="eight" horiz-adv-x="600" d="M300 -12Q240 -12 195 3T120 46T74 110T58 190Q58 262 97 304T199 363V371Q144 390 112 432T79 535Q79 615 137 662T300 710Q405 710 463 663T521 535Q521 475 489 433T401 371V363Q464 346 503 304T542
190Q542 147 527 110T481 46T405 4T300 -12ZM300 61Q373 61 413 93T453 186V207Q453 267 413 299T300 332Q227 332 187 300T147 207V186Q147 126 187 94T300 61ZM300 402Q366 402 400 430T434 512V527Q434 581 400 609T300 637Q234 637 200 609T166 527V512Q166
458 200 430T300 402Z" />
<glyph unicode="9" glyph-name="nine" horiz-adv-x="600" d="M533 442Q533 364 510 296T451 171T370 71T284 0H176Q232 41 276 80T353 161T409 252T446 362L441 364Q416 321 377 293T273 264Q228 264 190 279T125 322T83 389T67 479Q67 530 83 572T130 645T203
693T299 710Q353 710 396 692T470 639T517 554T533 442ZM300 335Q369 335 407 373T446 482V490Q446 561 408 599T300 637Q231 637 193 599T154 490V482Q154 411 192 373T300 335Z" />
<glyph unicode=":" glyph-name="colon" horiz-adv-x="292" d="M146 -12Q114 -12 100 4T85 46V59Q85 85 99 101T146 117Q178 117 192 101T207 59V46Q207 20 193 4T146 -12ZM146 399Q114 399 100 415T85 457V470Q85 496 99 512T146 528Q178 528 192 512T207 470V457Q207
431 193 415T146 399Z" />
<glyph unicode=";" glyph-name="semicolon" horiz-adv-x="292" d="M146 117Q178 117 192 101T207 58V44Q207 3 183 -46T116 -133H49Q79 -101 97 -73T124 -9Q104 -4 95 10T85 44V58Q85 84 99 100T146 117ZM146 399Q114 399 100 415T85 457V470Q85 496 99 512T146
528Q178 528 192 512T207 470V457Q207 431 193 415T146 399Z" />
<glyph unicode="&lt;" glyph-name="less" horiz-adv-x="600" d="M90 237V317L510 566V482L165 281V273L510 72V-12L90 237Z" />
<glyph unicode="=" glyph-name="equal" horiz-adv-x="600" d="M67 372V440H533V372H67ZM67 172V240H533V172H67Z" />
<glyph unicode="&gt;" glyph-name="greater" horiz-adv-x="600" d="M90 72L435 273V281L90 482V566L510 317V237L90 -12V72Z" />
<glyph unicode="?" glyph-name="question" horiz-adv-x="477" d="M179 208V372Q261 376 307 412T354 511V525Q354 576 322 606T236 637Q178 637 144 604T97 520L23 548Q32 580 49 609T93 661T156 697T239 710Q332 710 386 659T440 521Q440 473 424 438T381 377T322
337T256 316V208H179ZM218 -12Q186 -12 172 4T157 46V59Q157 85 171 101T218 117Q250 117 264 101T279 59V46Q279 20 265 4T218 -12Z" />
<glyph unicode="@" glyph-name="at" horiz-adv-x="891" d="M679 -121H447Q361 -121 291 -92T170 -10T93 119T65 288Q65 381 93 458T172 590T295 677T456 708Q526 708 593 687T711 619T794 500T826 323Q826 271 817 225T786 145T732 90T652 69Q604 69 580 93T551
155H547Q527 115 498 92T423 69Q388 69 357 82T301 123T263 191T249 289Q249 345 263 386T301 455T356 495T423 509Q469 509 496 487T537 432H541V500H610V196Q610 157 623 144T665 130Q712 130 736 178T760 310V356Q760 422 737 476T672 568T575 627T455 648Q383
648 324 623T222 554T156 450T132 321V262Q132 191 155 132T219 30T319 -36T448 -60H679V-121ZM437 135Q490 135 515 160T541 231V353Q541 391 516 417T437 443Q383 443 358 412T333 329V249Q333 197 358 166T437 135Z" />
<glyph unicode="A" glyph-name="A" horiz-adv-x="641" d="M530 0L460 206H178L108 0H23L267 698H374L618 0H530ZM321 620H316L198 280H439L321 620Z" />
<glyph unicode="B" glyph-name="B" horiz-adv-x="653" d="M93 698H380Q467 698 516 649T566 518Q566 479 555 452T527 408T490 382T453 370V364Q472 363 495 354T540 326T575 276T590 202Q590 159 577 122T539 58T482 16T410 0H93V698ZM177 74H384Q438 74 469
101T500 182V216Q500 269 469 296T384 324H177V74ZM177 396H370Q420 396 448 421T476 493V527Q476 574 448 599T370 624H177V396Z" />
<glyph unicode="C" glyph-name="C" horiz-adv-x="621" d="M339 -12Q206 -12 132 78T58 345Q58 521 132 615T339 710Q427 710 486 670T579 557L511 516Q490 570 447 602T339 635Q294 635 259 618T199 570T161 495T148 397V293Q148 185 198 124T339 63Q406 63 451
97T517 189L584 147Q551 73 489 31T339 -12Z" />
<glyph unicode="D" glyph-name="D" horiz-adv-x="671" d="M93 698H327Q392 698 445 676T535 611T593 502T613 349Q613 262 593 197T536 88T445 22T327 0H93V698ZM327 74Q370 74 406 88T468 131T508 199T523 292V406Q523 458 509 498T468 567T406 609T327 624H177V74H327Z" />
<glyph unicode="E" glyph-name="E" horiz-adv-x="583" d="M93 0V698H519V624H177V390H499V316H177V74H519V0H93Z" />
<glyph unicode="F" glyph-name="F" horiz-adv-x="559" d="M93 0V698H509V624H177V390H480V316H177V0H93Z" />
<glyph unicode="G" glyph-name="G" horiz-adv-x="695" d="M545 102H542Q529 53 479 21T348 -12Q284 -12 231 11T139 80T80 193T58 349Q58 436 79 503T139 616T233 686T355 710Q449 710 512 668T609 557L540 515Q516 571 469 603T355 635Q309 635 271 619T206 572T163
500T148 406V293Q148 241 163 199T205 126T273 80T363 63Q399 63 431 72T488 101T527 148T541 216V285H387V359H623V0H545V102Z" />
<glyph unicode="H" glyph-name="H" horiz-adv-x="707" d="M530 316H177V0H93V698H177V390H530V698H614V0H530V316Z" />
<glyph unicode="I" glyph-name="I" horiz-adv-x="400" d="M60 0V70H158V628H60V698H340V628H242V70H340V0H60Z" />
<glyph unicode="J" glyph-name="J" horiz-adv-x="510" d="M422 698V181Q422 137 408 101T367 40T303 2T222 -12Q141 -12 92 31T28 147L104 165Q114 120 142 92T224 63Q278 63 308 96T338 196V624H98V698H422Z" />
<glyph unicode="K" glyph-name="K" horiz-adv-x="634" d="M276 343L177 233V0H93V698H177V327H180L280 448L491 698H594L334 399L612 0H508L276 343Z" />
<glyph unicode="L" glyph-name="L" horiz-adv-x="501" d="M93 0V698H177V74H474V0H93Z" />
<glyph unicode="M" glyph-name="M" horiz-adv-x="812" d="M637 588H632L573 471L406 167L239 471L180 588H175V0H93V698H205L405 322H410L611 698H719V0H637V588Z" />
<glyph unicode="N" glyph-name="N" horiz-adv-x="707" d="M262 426L178 581H175V0H93V698H190L445 272L529 117H532V698H614V0H517L262 426Z" />
<glyph unicode="O" glyph-name="O" horiz-adv-x="708" d="M354 -12Q286 -12 232 11T139 80T79 193T58 349Q58 437 79 504T138 617T231 686T354 710Q421 710 476 687T569 617T629 504T650 349Q650 261 629 194T570 81T476 12T354 -12ZM354 63Q399 63 437 79T502
125T545 197T560 291V407Q560 459 545 501T503 573T437 619T354 635Q309 635 271 619T206 573T163 501T148 407V291Q148 239 163 197T205 125T271 79T354 63Z" />
<glyph unicode="P" glyph-name="P" horiz-adv-x="606" d="M93 0V698H371Q465 698 515 645T566 498Q566 405 516 352T371 298H177V0H93ZM177 372H371Q421 372 448 398T476 472V524Q476 572 449 598T371 624H177V372Z" />
<glyph unicode="Q" glyph-name="Q" horiz-adv-x="708" d="M508 -164H405Q363 -164 342 -141T321 -82V-11Q261 -5 212 21T129 92T77 202T58 349Q58 437 79 504T138 617T231 686T354 710Q421 710 476 687T569 617T629 504T650 349Q650 188 583 98T401 -9V-94H508V-164ZM354
63Q399 63 437 79T502 125T545 197T560 291V407Q560 459 545 501T503 573T437 619T354 635Q309 635 271 619T206 573T163 501T148 407V291Q148 239 163 197T205 125T271 79T354 63Z" />
<glyph unicode="R" glyph-name="R" horiz-adv-x="640" d="M177 0H93V698H371Q463 698 514 647T566 500Q566 423 531 374T426 308L586 0H491L340 300H177V0ZM371 372Q421 372 448 398T476 472V524Q476 572 449 598T371 624H177V372H371Z" />
<glyph unicode="S" glyph-name="S" horiz-adv-x="581" d="M289 -12Q204 -12 144 20T42 110L104 162Q141 113 186 88T292 62Q367 62 406 98T446 194Q446 244 416 271T317 314L260 327Q164 349 114 393T63 519Q63 565 80 601T127 661T200 697T294 710Q373 710 429
681T525 596L462 550Q433 590 392 613T290 636Q223 636 185 608T146 522Q146 472 178 447T277 406L334 393Q437 370 483 323T529 198Q529 150 513 111T465 45T390 3T289 -12Z" />
<glyph unicode="T" glyph-name="T" horiz-adv-x="572" d="M328 624V0H244V624H22V698H550V624H328Z" />
<glyph unicode="U" glyph-name="U" horiz-adv-x="678" d="M172 698V266Q172 166 209 115T339 63Q432 63 469 114T506 266V698H590V286Q590 210 577 154T533 61T455 6T336 -12Q266 -12 219 6T142 61T101 154T88 286V698H172Z" />
<glyph unicode="V" glyph-name="V" horiz-adv-x="609" d="M252 0L20 698H110L225 346L302 84H307L386 346L502 698H589L354 0H252Z" />
<glyph unicode="W" glyph-name="W" horiz-adv-x="891" d="M190 0L20 698H109L184 362L242 101H244L309 362L397 698H493L578 362L643 102H646L706 362L785 698H871L692 0H599L508 348L444 604H442L376 348L283 0H190Z" />
<glyph unicode="X" glyph-name="X" horiz-adv-x="613" d="M589 0H488L305 293H303L120 0H24L252 355L30 698H131L306 420H308L487 698H583L359 358L589 0Z" />
<glyph unicode="Y" glyph-name="Y" horiz-adv-x="593" d="M253 0V276L13 698H109L295 362H298L484 698H580L337 279V0H253Z" />
<glyph unicode="Z" glyph-name="Z" horiz-adv-x="580" d="M544 0H36V76L439 624H57V698H530V622L126 74H544V0Z" />
<glyph unicode="[" glyph-name="bracketleft" horiz-adv-x="317" d="M93 -138V760H257V697H162V-75H257V-138H93Z" />
<glyph unicode="\" glyph-name="backslash" horiz-adv-x="383" d="M299 -151L40 740H112L371 -151H299Z" />
<glyph unicode="]" glyph-name="bracketright" horiz-adv-x="317" d="M224 760V-138H60V-75H155V697H60V760H224Z" />
<glyph unicode="^" glyph-name="asciicircum" horiz-adv-x="600" d="M489 296L302 624H298L111 296L50 328L257 698H343L550 328L489 296Z" />
<glyph unicode="_" glyph-name="underscore" horiz-adv-x="565" d="M30 -165V-95H535V-165H30Z" />
<glyph unicode="`" glyph-name="grave" horiz-adv-x="600" d="M187 744L260 779L345 609L293 585L187 744Z" />
<glyph unicode="a" glyph-name="a" horiz-adv-x="534" d="M460 0Q415 0 396 24T371 84H366Q349 36 310 12T217 -12Q135 -12 90 30T44 144Q44 217 97 256T264 295H366V346Q366 401 336 430T244 459Q197 459 166 438T113 382L65 427Q86 469 132 498T248 528Q342
528 394 482T446 354V70H505V0H460ZM230 56Q260 56 285 63T328 83T356 113T366 150V235H260Q191 235 160 215T128 157V136Q128 98 155 77T230 56Z" />
<glyph unicode="b" glyph-name="b" horiz-adv-x="580" d="M85 740H165V432H169Q189 481 227 504T320 528Q368 528 407 509T473 455T515 370T530 258Q530 196 516 146T474 61T407 7T320 -12Q215 -12 169 84H165V0H85V740ZM298 60Q366 60 405 102T444 214V302Q444
371 405 413T298 456Q271 456 247 449T204 428T176 397T165 357V165Q165 140 175 121T204 88T246 67T298 60Z" />
<glyph unicode="c" glyph-name="c" horiz-adv-x="503" d="M277 -12Q223 -12 180 7T108 61T63 146T47 258Q47 320 62 370T107 455T180 509T277 528Q354 528 400 495T470 407L403 373Q389 413 357 435T277 457Q241 457 214 446T169 414T142 365T133 302V214Q133
146 169 103T277 59Q374 59 417 149L475 110Q450 54 401 21T277 -12Z" />
<glyph unicode="d" glyph-name="d" horiz-adv-x="580" d="M415 84H411Q364 -12 260 -12Q212 -12 173 7T107 61T65 146T50 258Q50 320 64 370T106 455T173 509T260 528Q314 528 352 505T411 432H415V740H495V0H415V84ZM282 60Q309 60 333 67T376 87T404 120T415
165V357Q415 378 405 396T376 428T334 448T282 456Q214 456 175 414T136 302V214Q136 145 175 103T282 60Z" />
<glyph unicode="e" glyph-name="e" horiz-adv-x="549" d="M279 -12Q226 -12 184 7T111 61T64 146T47 258Q47 319 63 369T110 454T183 509T279 528Q331 528 372 509T442 457T486 377T502 276V238H131V214Q131 181 141 153T171 103T219 70T284 58Q333 58 369 81T426
147L483 106Q458 53 405 21T279 -12ZM279 461Q246 461 219 450T173 417T142 368T131 305V298H416V309Q416 378 379 419T279 461Z" />
<glyph unicode="f" glyph-name="f" horiz-adv-x="324" d="M113 446H29V516H113V620Q113 674 141 707T226 740H304V670H193V516H304V446H193V0H113V446Z" />
<glyph unicode="g" glyph-name="g" horiz-adv-x="528" d="M520 -57Q520 -137 458 -174T270 -212Q149 -212 96 -179T43 -85Q43 -43 65 -20T125 15V26Q79 48 79 98Q79 137 104 157T168 188V192Q122 214 97 255T71 350Q71 389 85 422T124 478T185 515T265 528Q320
528 363 508V517Q363 547 377 566T423 586H500V516H402V483Q430 459 445 426T461 350Q461 311 447 278T408 222T346 185T266 172Q241 172 216 177Q190 170 169 157T148 119Q148 96 170 88T227 80H337Q433 80 476 44T520 -57ZM445 -63Q445 -32 422 -14T338 5H166Q118
-17 118 -65Q118 -99 143 -123T230 -147H304Q371 -147 408 -126T445 -63ZM266 236Q317 236 347 260T377 336V364Q377 415 347 439T266 464Q215 464 185 440T155 364V336Q155 285 185 261T266 236Z" />
<glyph unicode="h" glyph-name="h" horiz-adv-x="568" d="M85 740H165V432H169Q188 476 222 502T315 528Q395 528 441 477T488 331V0H408V317Q408 456 291 456Q267 456 245 450T204 432T176 402T165 358V0H85V740Z" />
<glyph unicode="i" glyph-name="i" horiz-adv-x="250" d="M125 637Q99 637 88 649T76 682V695Q76 715 87 727T125 740Q151 740 162 728T174 695V682Q174 662 163 650T125 637ZM85 516H165V0H85V516Z" />
<glyph unicode="j" glyph-name="j" horiz-adv-x="250" d="M85 516H165V-80Q165 -134 138 -167T53 -200H1V-130H85V516ZM125 637Q99 637 88 649T76 682V695Q76 715 87 727T125 740Q151 740 162 728T174 695V682Q174 662 163 650T125 637Z" />
<glyph unicode="k" glyph-name="k" horiz-adv-x="527" d="M85 740H165V271H169L248 359L394 516H491L300 312L510 0H413L242 263L165 184V0H85V740Z" />
<glyph unicode="l" glyph-name="l" horiz-adv-x="272" d="M170 0Q128 0 107 23T85 83V740H165V70H241V0H170Z" />
<glyph unicode="m" glyph-name="m" horiz-adv-x="873" d="M85 0V516H165V432H169Q178 452 189 469T217 500T256 520T308 528Q359 528 402 504T466 423H468Q482 465 520 496T625 528Q704 528 748 477T793 331V0H713V317Q713 386 686 421T600 456Q576 456 555 450T516
432T489 402T479 358V0H399V317Q399 386 372 421T288 456Q264 456 242 450T203 432T176 402T165 358V0H85Z" />
<glyph unicode="n" glyph-name="n" horiz-adv-x="568" d="M85 0V516H165V432H169Q188 476 222 502T315 528Q395 528 441 477T488 331V0H408V317Q408 456 291 456Q267 456 245 450T204 432T176 402T165 358V0H85Z" />
<glyph unicode="o" glyph-name="o" horiz-adv-x="560" d="M280 -12Q228 -12 185 7T112 61T64 146T47 258Q47 319 64 369T111 454T185 509T280 528Q332 528 374 509T448 455T496 369T513 258Q513 196 496 147T448 62T375 7T280 -12ZM280 59Q345 59 386 99T427 221V295Q427
377 386 417T280 457Q215 457 174 417T133 295V221Q133 139 174 99T280 59Z" />
<glyph unicode="p" glyph-name="p" horiz-adv-x="580" d="M85 516H165V432H169Q189 481 227 504T320 528Q368 528 407 509T473 455T515 370T530 258Q530 196 516 146T474 61T407 7T320 -12Q215 -12 169 84H165V-200H85V516ZM298 60Q366 60 405 102T444 214V302Q444
371 405 413T298 456Q271 456 247 449T204 428T176 397T165 357V165Q165 140 175 121T204 88T246 67T298 60Z" />
<glyph unicode="q" glyph-name="q" horiz-adv-x="580" d="M415 84H411Q364 -12 260 -12Q212 -12 173 7T107 61T65 146T50 258Q50 320 64 370T106 455T173 509T260 528Q314 528 352 505T411 432H415V516H495V-200H415V84ZM282 60Q309 60 333 67T376 87T404 120T415
165V357Q415 378 405 396T376 428T334 448T282 456Q214 456 175 414T136 302V214Q136 145 175 103T282 60Z" />
<glyph unicode="r" glyph-name="r" horiz-adv-x="367" d="M85 0V516H165V421H170Q184 458 220 487T319 516H350V436H303Q238 436 202 412T165 350V0H85Z" />
<glyph unicode="s" glyph-name="s" horiz-adv-x="487" d="M240 -12Q168 -12 120 15T36 89L93 135Q123 97 160 77T246 56Q297 56 325 78T354 140Q354 170 335 191T264 221L223 227Q187 232 157 242T105 270T70 314T57 376Q57 414 71 442T109 490T168 518T241 528Q304
528 346 506T421 445L368 397Q351 421 318 440T235 460Q185 460 160 439T134 380Q134 342 159 325T233 300L273 294Q359 281 395 245T431 149Q431 74 380 31T240 -12Z" />
<glyph unicode="t" glyph-name="t" horiz-adv-x="351" d="M199 0Q157 0 136 23T114 85V446H29V516H77Q103 516 112 526T122 563V659H194V516H307V446H194V70H299V0H199Z" />
<glyph unicode="u" glyph-name="u" horiz-adv-x="568" d="M403 84H399Q391 66 380 49T351 18T310 -4T254 -12Q174 -12 127 39T80 185V516H160V199Q160 60 278 60Q302 60 324 66T364 84T392 114T403 159V516H483V0H403V84Z" />
<glyph unicode="v" glyph-name="v" horiz-adv-x="492" d="M199 0L18 516H98L188 260L244 84H249L305 260L397 516H474L292 0H199Z" />
<glyph unicode="w" glyph-name="w" horiz-adv-x="768" d="M31 516H109L164 293L219 67H221L284 293L349 516H420L487 293L551 67H553L606 293L662 516H737L600 0H501L429 248L384 405H382L338 248L266 0H169L31 516Z" />
<glyph unicode="x" glyph-name="x" horiz-adv-x="507" d="M21 0L212 260L29 516H123L254 324H257L393 516H482L300 266L486 0H392L258 202H255L110 0H21Z" />
<glyph unicode="y" glyph-name="y" horiz-adv-x="499" d="M403 516H482L251 -120Q242 -143 233 -158T211 -183T179 -196T131 -200H90V-130H171L210 -20L17 516H97L221 165L245 81H250L278 165L403 516Z" />
<glyph unicode="z" glyph-name="z" horiz-adv-x="464" d="M33 0V67L326 446H42V516H423V456L124 70H431V0H33Z" />
<glyph unicode="{" glyph-name="braceleft" horiz-adv-x="343" d="M199 -138Q159 -138 139 -115T119 -56V184Q119 227 92 249T22 272V350Q64 350 91 372T119 438V678Q119 713 139 736T199 760H283V697H188V447Q188 400 162 364T93 319V303Q135 295 161 259T188
175V-75H283V-138H199Z" />
<glyph unicode="|" glyph-name="bar" horiz-adv-x="314" d="M123 -138V760H191V-138H123Z" />
<glyph unicode="}" glyph-name="braceright" horiz-adv-x="343" d="M144 760Q184 760 204 737T224 678V438Q224 395 251 373T321 350V272Q279 272 252 250T224 184V-56Q224 -91 204 -114T144 -138H60V-75H155V175Q155 222 181 258T250 303V319Q208 327 182 363T155
447V697H60V760H144Z" />
<glyph unicode="~" glyph-name="asciitilde" horiz-adv-x="600" d="M419 236Q382 236 354 246T290 273Q262 287 235 297T177 307Q152 307 135 300T94 275L61 319Q81 344 108 359T181 374Q218 374 246 364T310 337Q338 323 365 313T423 303Q448 303 465 310T506
335L539 291Q519 266 492 251T419 236Z" />
<glyph unicode="&#xa0;" glyph-name="uni00A0" horiz-adv-x="236" />
<glyph unicode="&#xa1;" glyph-name="exclamdown" horiz-adv-x="284" d="M97 -182V21L121 331H161L185 21V-182H97ZM142 399Q110 399 96 415T81 457V470Q81 496 95 512T142 528Q174 528 188 512T203 470V457Q203 431 189 415T142 399Z" />
<glyph unicode="&#xa2;" glyph-name="cent" horiz-adv-x="514" d="M235 -114V-9Q144 4 96 75T47 258Q47 371 96 441T235 525V630H305V527Q368 522 408 490T469 409L405 374Q378 445 304 456V60Q382 69 418 148L476 109Q454 58 411 26T305 -11V-114H235ZM133 214Q133
157 159 116T236 63V453Q185 442 159 401T133 302V214Z" />
<glyph unicode="&#xa3;" glyph-name="sterling" horiz-adv-x="595" d="M82 0V100Q124 118 139 156T154 237Q154 250 153 262T150 286H60V356H131Q120 390 110 423T100 499Q100 545 115 584T160 651T233 694T330 710Q407 710 458 680T544 596L481 550Q455 590 419
613T327 636Q262 636 225 600T187 491Q187 453 196 421T215 356H431V286H233Q236 266 236 246Q236 190 214 145T161 80V75H525V0H82Z" />
<glyph unicode="&#xa4;" glyph-name="currency" horiz-adv-x="612" d="M306 119Q222 119 168 164L66 62L18 109L124 215Q92 271 92 349Q92 427 124 483L18 589L66 636L168 534Q222 579 306 579Q390 579 444 534L546 636L594 589L488 483Q520 427 520 349Q520 271
488 215L594 109L546 62L444 164Q390 119 306 119ZM306 186Q364 186 399 218T435 317V381Q435 447 400 479T306 512Q248 512 213 480T177 381V317Q177 251 212 219T306 186Z" />
<glyph unicode="&#xa5;" glyph-name="yen" horiz-adv-x="605" d="M344 145V0H261V145H85V212H261V308H85V375H221L34 698H128L303 383H308L478 698H571L384 375H520V308H344V212H520V145H344Z" />
<glyph unicode="&#xa6;" glyph-name="brokenbar" horiz-adv-x="314" d="M123 406V760H191V406H123ZM123 -138V216H191V-138H123Z" />
<glyph unicode="&#xa7;" glyph-name="section" horiz-adv-x="586" d="M475 4Q475 -33 461 -62T420 -112T358 -144T277 -155Q232 -155 189 -142T110 -99L156 -43Q180 -63 210 -74T278 -86Q334 -86 365 -63T396 2Q396 40 369 62T292 99L229 118Q148 142 112 181T76
271Q76 319 104 356T185 414V421Q152 443 132 475T111 552Q111 588 125 617T165 667T227 699T308 710Q353 710 397 697T476 654L429 598Q405 618 375 629T307 641Q251 641 220 618T189 553Q189 515 216 493T293 456L356 437Q437 413 473 374T510 284Q510 236 482
199T400 141V135Q436 112 455 80T475 4ZM431 263Q431 305 403 331T314 375L252 392Q244 394 236 397T220 403Q190 382 173 355T155 292Q155 250 183 224T271 180L333 163Q341 161 349 158T365 152Q395 174 413 201T431 263Z" />
<glyph unicode="&#xa8;" glyph-name="dieresis" horiz-adv-x="600" d="M207 618Q181 618 170 630T158 664V675Q158 696 169 708T207 721Q233 721 244 709T256 675V664Q256 643 245 631T207 618ZM393 618Q367 618 356 630T344 664V675Q344 696 355 708T393 721Q419
721 430 709T442 675V664Q442 643 431 631T393 618Z" />
<glyph unicode="&#xa9;" glyph-name="copyright" horiz-adv-x="776" d="M388 -11Q318 -11 257 14T151 85T80 199T54 349Q54 432 80 499T151 612T257 684T388 709Q458 709 519 684T625 613T696 499T722 349Q722 266 696 199T625 86T519 14T388 -11ZM388 49Q446
49 495 69T579 126T634 211T654 319V379Q654 437 635 486T580 572T495 628T388 649Q329 649 281 629T197 572T142 487T122 379V319Q122 261 141 212T196 126T280 70T388 49ZM396 155Q318 155 275 207T231 349Q231 438 274 490T396 543Q447 543 479 519T529 456L472
424Q461 450 443 465T396 480Q352 480 330 453T307 381V316Q307 272 329 245T396 217Q428 217 447 233T481 277L535 243Q518 205 484 180T396 155Z" />
<glyph unicode="&#xaa;" glyph-name="ordfeminine" horiz-adv-x="399" d="M360 350H326Q297 350 281 363T264 403H260Q249 380 222 362T149 344Q96 344 68 371T40 442Q40 496 78 521T189 546H260V574Q260 652 185 652Q151 652 128 638T94 600L52 634Q67 660 100
682T188 704Q251 704 287 671T323 577V406H360V350ZM187 500Q146 500 125 488T103 453V443Q103 395 163 395Q182 395 199 399T230 412T252 432T260 459V500H187Z" />
<glyph unicode="&#xab;" glyph-name="guillemotleft" horiz-adv-x="513" d="M228 80L36 246V322L228 488L252 434L115 284L252 134L228 80ZM437 80L245 246V322L437 488L461 434L324 284L461 134L437 80Z" />
<glyph unicode="&#xac;" glyph-name="logicalnot" horiz-adv-x="600" d="M464 78V271H67V339H533V78H464Z" />
<glyph unicode="&#xad;" glyph-name="uni00AD" horiz-adv-x="399" d="M69 261V347H330V261H69Z" />
<glyph unicode="&#xae;" glyph-name="registered" horiz-adv-x="476" d="M238 298Q197 298 161 313T98 357T56 422T40 504Q40 548 55 585T98 651T161 694T238 710Q278 710 314 695T377 651T420 586T436 504Q436 460 420 423T377 357T314 314T238 298ZM238 338Q272
338 300 351T349 385T381 435T393 493V515Q393 545 382 573T350 622T301 657T238 670Q204 670 176 657T127 623T95 573T83 515V493Q83 463 94 435T126 386T175 351T238 338ZM203 396H163V605H253Q283 605 300 588T317 542Q317 518 306 503T278 481L327 396H282L238
476H203V396ZM251 508Q274 508 274 529V551Q274 572 251 572H203V508H251Z" />
<glyph unicode="&#xaf;" glyph-name="overscore" horiz-adv-x="600" d="M160 705H440V637H160V705Z" />
<glyph unicode="&#xb0;" glyph-name="degree" horiz-adv-x="468" d="M234 366Q198 366 168 379T115 415T79 469T66 538Q66 575 79 606T114 661T167 697T234 710Q270 710 300 697T353 661T389 607T402 538Q402 501 389 470T354 415T301 379T234 366ZM234 430Q279
430 305 461T332 538Q332 583 306 614T234 646Q189 646 163 615T136 538Q136 493 162 462T234 430Z" />
<glyph unicode="&#xb1;" glyph-name="plusminus" horiz-adv-x="600" d="M262 152V351H67V419H262V618H338V419H533V351H338V152H262ZM67 0V68H533V0H67Z" />
<glyph unicode="&#xb2;" glyph-name="twosuperior" horiz-adv-x="346" d="M311 329H39V386L169 491Q198 515 214 538T231 589V595Q231 621 215 636T166 652Q131 652 114 635T88 594L34 614Q40 632 50 648T77 676T117 696T170 704Q232 704 265 674T298 595Q298
551 272 519T203 454L106 379H311V329Z" />
<glyph unicode="&#xb3;" glyph-name="threesuperior" horiz-adv-x="346" d="M155 546Q193 546 211 560T230 598V602Q230 627 213 640T165 654Q136 654 116 642T82 609L39 643Q56 668 86 686T167 704Q224 704 260 679T297 609Q297 573 274 552T219 524V521Q253
515 278 493T303 431Q303 382 265 353T160 323Q105 323 74 343T24 389L71 423Q85 401 105 387T160 373Q198 373 217 389T237 434V440Q237 495 160 495H115V546H155Z" />
<glyph unicode="&#xb4;" glyph-name="acute" horiz-adv-x="600" d="M307 585L255 609L340 779L413 744L307 585Z" />
<glyph unicode="&#xb5;" glyph-name="mu" horiz-adv-x="573" d="M85 -200V516H165V199Q165 130 195 95T282 60Q306 60 328 66T369 84T397 115T408 160V516H488V0H408V84H404Q396 66 385 49T356 18T316 -4T262 -12Q189 -12 161 40H158L165 -45V-200H85Z" />
<glyph unicode="&#xb6;" glyph-name="paragraph" horiz-adv-x="652" d="M246 300Q205 300 170 316T109 359T67 422T52 499Q52 539 67 575T108 639T170 682T246 698H570V630H503V-149H430V630H319V-149H246V300Z" />
<glyph unicode="&#xb7;" glyph-name="middot" horiz-adv-x="326" d="M163 240Q131 240 117 256T102 298V311Q102 337 116 353T163 369Q195 369 209 353T224 311V298Q224 272 210 256T163 240Z" />
<glyph unicode="&#xb8;" glyph-name="cedilla" horiz-adv-x="600" d="M312 -207Q271 -207 248 -194T213 -166L251 -125Q260 -136 275 -144T312 -153Q331 -153 343 -146T356 -122Q356 -108 343 -98T288 -81L260 -77L279 20H329L313 -61L316 -64Q335 -58 355 -58Q384
-58 403 -75T423 -124Q423 -145 414 -161T390 -187T354 -202T312 -207Z" />
<glyph unicode="&#xb9;" glyph-name="onesuperior" horiz-adv-x="359" d="M55 329V379H164V647H158L68 558L32 595L134 698H227V379H325V329H55Z" />
<glyph unicode="&#xba;" glyph-name="ordmasculine" horiz-adv-x="398" d="M199 344Q126 344 85 391T44 524Q44 609 85 656T199 704Q272 704 313 657T354 524Q354 439 313 392T199 344ZM199 396Q243 396 264 423T286 493V555Q286 598 265 625T199 652Q155 652
134 625T112 555V493Q112 450 133 423T199 396Z" />
<glyph unicode="&#xbb;" glyph-name="guillemotright" horiz-adv-x="513" d="M52 134L189 284L52 434L76 488L268 322V246L76 80L52 134ZM261 134L398 284L261 434L285 488L477 322V246L285 80L261 134Z" />
<glyph unicode="&#xbc;" glyph-name="onequarter" horiz-adv-x="847" d="M55 329V379H164V647H158L68 558L32 595L134 698H227V379H325V329H55ZM171 0L657 698H724L238 0H171ZM710 0V72H521V124L685 369H770V120H826V72H770V0H710ZM710 312H706L576 120H710V312Z" />
<glyph unicode="&#xbd;" glyph-name="onehalf" horiz-adv-x="872" d="M55 329V379H164V647H158L68 558L32 595L134 698H227V379H325V329H55ZM171 0L657 698H724L238 0H171ZM837 0H565V57L695 162Q724 186 740 210T757 260V266Q757 292 741 307T692 323Q657 323
640 306T614 265L560 285Q566 303 576 319T603 347T643 367T696 375Q758 375 791 345T824 266Q824 222 798 190T729 125L632 50H837V0Z" />
<glyph unicode="&#xbe;" glyph-name="threequarters" horiz-adv-x="824" d="M155 546Q193 546 211 560T230 598V602Q230 627 213 640T165 654Q136 654 116 642T82 609L39 643Q56 668 86 686T167 704Q224 704 260 679T297 609Q297 573 274 552T219 524V521Q253
515 278 493T303 431Q303 382 265 353T160 323Q105 323 74 343T24 389L71 423Q85 401 105 387T160 373Q198 373 217 389T237 434V440Q237 495 160 495H115V546H155ZM148 0L634 698H701L215 0H148ZM687 0V72H498V124L662 369H747V120H803V72H747V0H687ZM687 312H683L553
120H687V312Z" />
<glyph unicode="&#xbf;" glyph-name="questiondown" horiz-adv-x="467" d="M238 -194Q145 -194 91 -143T37 -5Q37 43 53 78T96 139T155 179T221 200V308H298V144Q216 140 170 104T123 5V-9Q123 -60 155 -90T241 -121Q299 -121 333 -88T380 -4L454 -32Q445 -64
428 -93T384 -145T321 -181T238 -194ZM262 399Q230 399 216 415T201 457V470Q201 496 215 512T262 528Q294 528 308 512T323 470V457Q323 431 309 415T262 399Z" />
<glyph unicode="&#xc0;" glyph-name="Agrave" horiz-adv-x="641" d="M530 0L460 206H178L108 0H23L267 698H374L618 0H530ZM321 620H316L198 280H439L321 620ZM209 914L282 949L367 779L315 755L209 914Z" />
<glyph unicode="&#xc1;" glyph-name="Aacute" horiz-adv-x="641" d="M530 0L460 206H178L108 0H23L267 698H374L618 0H530ZM321 620H316L198 280H439L321 620ZM329 755L277 779L362 949L435 914L329 755Z" />
<glyph unicode="&#xc2;" glyph-name="Acircumflex" horiz-adv-x="641" d="M530 0L460 206H178L108 0H23L267 698H374L618 0H530ZM321 620H316L198 280H439L321 620ZM372 935L483 792L439 761L322 878L205 761L161 792L272 935H372Z" />
<glyph unicode="&#xc3;" glyph-name="Atilde" horiz-adv-x="641" d="M530 0L460 206H178L108 0H23L267 698H374L618 0H530ZM321 620H316L198 280H439L321 620ZM395 782Q369 782 350 791T315 808Q291 821 275 826T245 832Q228 832 215 825T187 805L154 845Q168
865 191 881T249 898Q275 898 294 889T329 872Q353 859 369 854T399 848Q416 848 429 855T457 875L490 835Q476 815 453 799T395 782Z" />
<glyph unicode="&#xc4;" glyph-name="Adieresis" horiz-adv-x="641" d="M530 0L460 206H178L108 0H23L267 698H374L618 0H530ZM321 620H316L198 280H439L321 620ZM229 788Q203 788 191 801T179 835V847Q179 868 191 881T229 894Q255 894 267 881T279 847V835Q279
814 267 801T229 788ZM415 788Q389 788 377 801T365 835V847Q365 868 377 881T415 894Q441 894 453 881T465 847V835Q465 814 453 801T415 788Z" />
<glyph unicode="&#xc5;" glyph-name="Aring" horiz-adv-x="641" d="M530 0L460 206H178L108 0H23L267 698H374L618 0H530ZM321 620H316L198 280H439L321 620ZM322 746Q298 746 277 754T240 778T215 815T206 861Q206 886 215 907T239 943T276 967T322 976Q346 976
367 968T404 944T429 907T438 861Q438 836 429 815T405 779T368 755T322 746ZM322 795Q349 795 364 809T380 850V872Q380 898 365 912T322 927Q295 927 280 913T264 872V850Q264 824 279 810T322 795Z" />
<glyph unicode="&#xc6;" glyph-name="AE" horiz-adv-x="907" d="M417 205H192L90 0H4L361 698H843V624H500V390H823V316H500V74H843V0H417V205ZM404 624L227 279H417V624H404Z" />
<glyph unicode="&#xc7;" glyph-name="Ccedilla" horiz-adv-x="621" d="M339 635Q294 635 259 618T199 570T161 495T148 397V293Q148 185 198 124T339 63Q406 63 451 97T517 189L584 147Q553 78 497 36T361 -11L351 -61L354 -64Q373 -58 393 -58Q422 -58 441 -75T461
-124Q461 -145 452 -161T428 -187T392 -202T350 -207Q309 -207 286 -194T251 -166L289 -125Q298 -136 313 -144T350 -153Q369 -153 381 -146T394 -122Q394 -108 381 -98T326 -81L298 -77L311 -11Q191 -2 125 88T58 345Q58 521 132 615T339 710Q427 710 486 670T579
557L511 516Q490 570 447 602T339 635Z" />
<glyph unicode="&#xc8;" glyph-name="Egrave" horiz-adv-x="583" d="M93 0V698H519V624H177V390H499V316H177V74H519V0H93ZM191 914L264 949L349 779L297 755L191 914Z" />
<glyph unicode="&#xc9;" glyph-name="Eacute" horiz-adv-x="583" d="M93 0V698H519V624H177V390H499V316H177V74H519V0H93ZM311 755L259 779L344 949L417 914L311 755Z" />
<glyph unicode="&#xca;" glyph-name="Ecircumflex" horiz-adv-x="583" d="M93 0V698H519V624H177V390H499V316H177V74H519V0H93ZM354 935L465 792L421 761L304 878L187 761L143 792L254 935H354Z" />
<glyph unicode="&#xcb;" glyph-name="Edieresis" horiz-adv-x="583" d="M93 0V698H519V624H177V390H499V316H177V74H519V0H93ZM211 788Q185 788 173 801T161 835V847Q161 868 173 881T211 894Q237 894 249 881T261 847V835Q261 814 249 801T211 788ZM397 788Q371
788 359 801T347 835V847Q347 868 359 881T397 894Q423 894 435 881T447 847V835Q447 814 435 801T397 788Z" />
<glyph unicode="&#xcc;" glyph-name="Igrave" horiz-adv-x="400" d="M60 0V70H158V628H60V698H340V628H242V70H340V0H60ZM344 914L417 949L502 779L450 755L344 914Z" />
<glyph unicode="&#xcd;" glyph-name="Iacute" horiz-adv-x="400" d="M60 0V70H158V628H60V698H340V628H242V70H340V0H60ZM464 755L412 779L497 949L570 914L464 755Z" />
<glyph unicode="&#xce;" glyph-name="Icircumflex" horiz-adv-x="400" d="M60 0V70H158V628H60V698H340V628H242V70H340V0H60ZM507 935L618 792L574 761L457 878L340 761L296 792L407 935H507Z" />
<glyph unicode="&#xcf;" glyph-name="Idieresis" horiz-adv-x="400" d="M60 0V70H158V628H60V698H340V628H242V70H340V0H60ZM364 788Q338 788 326 801T314 835V847Q314 868 326 881T364 894Q390 894 402 881T414 847V835Q414 814 402 801T364 788ZM550 788Q524
788 512 801T500 835V847Q500 868 512 881T550 894Q576 894 588 881T600 847V835Q600 814 588 801T550 788Z" />
<glyph unicode="&#xd0;" glyph-name="Eth" horiz-adv-x="674" d="M96 337H17V401H96V698H330Q395 698 448 676T538 611T596 502T616 349Q616 262 596 197T539 88T448 22T330 0H96V337ZM330 74Q373 74 409 88T471 131T511 199T526 292V406Q526 458 512 498T471
567T409 609T330 624H180V401H317V337H180V74H330Z" />
<glyph unicode="&#xd1;" glyph-name="Ntilde" horiz-adv-x="707" d="M262 426L178 581H175V0H93V698H190L445 272L529 117H532V698H614V0H517L262 426ZM426 782Q400 782 381 791T346 808Q322 821 306 826T276 832Q259 832 246 825T218 805L185 845Q199 865 222
881T280 898Q306 898 325 889T360 872Q384 859 400 854T430 848Q447 848 460 855T488 875L521 835Q507 815 484 799T426 782Z" />
<glyph unicode="&#xd2;" glyph-name="Ograve" horiz-adv-x="708" d="M354 -12Q286 -12 232 11T139 80T79 193T58 349Q58 437 79 504T138 617T231 686T354 710Q421 710 476 687T569 617T629 504T650 349Q650 261 629 194T570 81T476 12T354 -12ZM354 63Q399 63
437 79T502 125T545 197T560 291V407Q560 459 545 501T503 573T437 619T354 635Q309 635 271 619T206 573T163 501T148 407V291Q148 239 163 197T205 125T271 79T354 63ZM241 914L314 949L399 779L347 755L241 914Z" />
<glyph unicode="&#xd3;" glyph-name="Oacute" horiz-adv-x="708" d="M354 -12Q286 -12 232 11T139 80T79 193T58 349Q58 437 79 504T138 617T231 686T354 710Q421 710 476 687T569 617T629 504T650 349Q650 261 629 194T570 81T476 12T354 -12ZM354 63Q399 63
437 79T502 125T545 197T560 291V407Q560 459 545 501T503 573T437 619T354 635Q309 635 271 619T206 573T163 501T148 407V291Q148 239 163 197T205 125T271 79T354 63ZM361 755L309 779L394 949L467 914L361 755Z" />
<glyph unicode="&#xd4;" glyph-name="Ocircumflex" horiz-adv-x="708" d="M354 -12Q286 -12 232 11T139 80T79 193T58 349Q58 437 79 504T138 617T231 686T354 710Q421 710 476 687T569 617T629 504T650 349Q650 261 629 194T570 81T476 12T354 -12ZM354 63Q399
63 437 79T502 125T545 197T560 291V407Q560 459 545 501T503 573T437 619T354 635Q309 635 271 619T206 573T163 501T148 407V291Q148 239 163 197T205 125T271 79T354 63ZM404 935L515 792L471 761L354 878L237 761L193 792L304 935H404Z" />
<glyph unicode="&#xd5;" glyph-name="Otilde" horiz-adv-x="708" d="M354 -12Q286 -12 232 11T139 80T79 193T58 349Q58 437 79 504T138 617T231 686T354 710Q421 710 476 687T569 617T629 504T650 349Q650 261 629 194T570 81T476 12T354 -12ZM354 63Q399 63
437 79T502 125T545 197T560 291V407Q560 459 545 501T503 573T437 619T354 635Q309 635 271 619T206 573T163 501T148 407V291Q148 239 163 197T205 125T271 79T354 63ZM427 782Q401 782 382 791T347 808Q323 821 307 826T277 832Q260 832 247 825T219 805L186
845Q200 865 223 881T281 898Q307 898 326 889T361 872Q385 859 401 854T431 848Q448 848 461 855T489 875L522 835Q508 815 485 799T427 782Z" />
<glyph unicode="&#xd6;" glyph-name="Odieresis" horiz-adv-x="708" d="M354 -12Q286 -12 232 11T139 80T79 193T58 349Q58 437 79 504T138 617T231 686T354 710Q421 710 476 687T569 617T629 504T650 349Q650 261 629 194T570 81T476 12T354 -12ZM354 63Q399
63 437 79T502 125T545 197T560 291V407Q560 459 545 501T503 573T437 619T354 635Q309 635 271 619T206 573T163 501T148 407V291Q148 239 163 197T205 125T271 79T354 63ZM261 788Q235 788 223 801T211 835V847Q211 868 223 881T261 894Q287 894 299 881T311
847V835Q311 814 299 801T261 788ZM447 788Q421 788 409 801T397 835V847Q397 868 409 881T447 894Q473 894 485 881T497 847V835Q497 814 485 801T447 788Z" />
<glyph unicode="&#xd7;" glyph-name="multiply" horiz-adv-x="600" d="M300 256L141 93L92 142L251 305L92 468L141 517L300 354L459 517L508 468L349 305L508 142L459 93L300 256Z" />
<glyph unicode="&#xd8;" glyph-name="Oslash" horiz-adv-x="708" d="M354 -12Q252 -12 181 41L121 -45L64 -8L132 89Q96 135 77 199T58 349Q58 437 79 504T138 617T231 686T354 710Q456 710 527 657L587 743L644 706L576 609Q612 563 631 499T650 349Q650 261
629 194T570 81T476 12T354 -12ZM148 291Q148 253 156 220T180 160L482 592Q430 635 354 635Q309 635 271 619T206 573T163 501T148 407V291ZM560 407Q560 445 552 478T528 538L226 106Q278 63 354 63Q399 63 437 79T502 125T545 197T560 291V407Z" />
<glyph unicode="&#xd9;" glyph-name="Ugrave" horiz-adv-x="678" d="M172 698V266Q172 166 209 115T339 63Q432 63 469 114T506 266V698H590V286Q590 210 577 154T533 61T455 6T336 -12Q266 -12 219 6T142 61T101 154T88 286V698H172ZM224 914L297 949L382 779L330
755L224 914Z" />
<glyph unicode="&#xda;" glyph-name="Uacute" horiz-adv-x="678" d="M172 698V266Q172 166 209 115T339 63Q432 63 469 114T506 266V698H590V286Q590 210 577 154T533 61T455 6T336 -12Q266 -12 219 6T142 61T101 154T88 286V698H172ZM344 755L292 779L377 949L450
914L344 755Z" />
<glyph unicode="&#xdb;" glyph-name="Ucircumflex" horiz-adv-x="678" d="M172 698V266Q172 166 209 115T339 63Q432 63 469 114T506 266V698H590V286Q590 210 577 154T533 61T455 6T336 -12Q266 -12 219 6T142 61T101 154T88 286V698H172ZM387 935L498 792L454
761L337 878L220 761L176 792L287 935H387Z" />
<glyph unicode="&#xdc;" glyph-name="Udieresis" horiz-adv-x="678" d="M172 698V266Q172 166 209 115T339 63Q432 63 469 114T506 266V698H590V286Q590 210 577 154T533 61T455 6T336 -12Q266 -12 219 6T142 61T101 154T88 286V698H172ZM244 788Q218 788 206
801T194 835V847Q194 868 206 881T244 894Q270 894 282 881T294 847V835Q294 814 282 801T244 788ZM430 788Q404 788 392 801T380 835V847Q380 868 392 881T430 894Q456 894 468 881T480 847V835Q480 814 468 801T430 788Z" />
<glyph unicode="&#xdd;" glyph-name="Yacute" horiz-adv-x="593" d="M253 0V276L13 698H109L295 362H298L484 698H580L337 279V0H253ZM561 755L509 779L594 949L667 914L561 755Z" />
<glyph unicode="&#xde;" glyph-name="Thorn" horiz-adv-x="606" d="M93 0V698H177V554H371Q465 554 515 500T566 354Q566 262 516 208T371 154H177V0H93ZM177 229H371Q421 229 448 255T476 329V379Q476 427 449 453T371 479H177V229Z" />
<glyph unicode="&#xdf;" glyph-name="germandbls" horiz-adv-x="640" d="M613 149Q613 74 565 31T432 -12Q372 -12 329 10T255 72L309 120Q361 56 438 56Q485 56 510 78T536 140Q536 170 522 191T466 221L435 228Q404 235 378 245T332 273T301 315T289 376Q289
445 337 482T467 522V527Q467 607 434 645T329 684Q258 684 226 646T193 527V0H113V446H29V516H113V521Q113 573 127 616T169 689T237 735T329 752Q380 752 420 736T488 689T530 616T545 521V460H498Q435 460 401 442T366 380Q366 342 386 325T445 299L475 292Q549
275 581 241T613 149Z" />
<glyph unicode="&#xe0;" glyph-name="agrave" horiz-adv-x="534" d="M460 0Q415 0 396 24T371 84H366Q349 36 310 12T217 -12Q135 -12 90 30T44 144Q44 217 97 256T264 295H366V346Q366 401 336 430T244 459Q197 459 166 438T113 382L65 427Q86 469 132 498T248
528Q342 528 394 482T446 354V70H505V0H460ZM230 56Q260 56 285 63T328 83T356 113T366 150V235H260Q191 235 160 215T128 157V136Q128 98 155 77T230 56ZM396 744L469 779L554 609L502 585L396 744Z" />
<glyph unicode="&#xe1;" glyph-name="aacute" horiz-adv-x="534" d="M460 0Q415 0 396 24T371 84H366Q349 36 310 12T217 -12Q135 -12 90 30T44 144Q44 217 97 256T264 295H366V346Q366 401 336 430T244 459Q197 459 166 438T113 382L65 427Q86 469 132 498T248
528Q342 528 394 482T446 354V70H505V0H460ZM230 56Q260 56 285 63T328 83T356 113T366 150V235H260Q191 235 160 215T128 157V136Q128 98 155 77T230 56ZM516 585L464 609L549 779L622 744L516 585Z" />
<glyph unicode="&#xe2;" glyph-name="acircumflex" horiz-adv-x="534" d="M460 0Q415 0 396 24T371 84H366Q349 36 310 12T217 -12Q135 -12 90 30T44 144Q44 217 97 256T264 295H366V346Q366 401 336 430T244 459Q197 459 166 438T113 382L65 427Q86 469 132 498T248
528Q342 528 394 482T446 354V70H505V0H460ZM230 56Q260 56 285 63T328 83T356 113T366 150V235H260Q191 235 160 215T128 157V136Q128 98 155 77T230 56ZM559 765L670 622L626 591L509 708L392 591L348 622L459 765H559Z" />
<glyph unicode="&#xe3;" glyph-name="atilde" horiz-adv-x="534" d="M460 0Q415 0 396 24T371 84H366Q349 36 310 12T217 -12Q135 -12 90 30T44 144Q44 217 97 256T264 295H366V346Q366 401 336 430T244 459Q197 459 166 438T113 382L65 427Q86 469 132 498T248
528Q342 528 394 482T446 354V70H505V0H460ZM230 56Q260 56 285 63T328 83T356 113T366 150V235H260Q191 235 160 215T128 157V136Q128 98 155 77T230 56ZM582 612Q556 612 537 621T502 638Q478 651 462 656T432 662Q415 662 402 655T374 635L341 675Q355 695 378
711T436 728Q462 728 481 719T516 702Q540 689 556 684T586 678Q603 678 616 685T644 705L677 665Q663 645 640 629T582 612Z" />
<glyph unicode="&#xe4;" glyph-name="adieresis" horiz-adv-x="534" d="M460 0Q415 0 396 24T371 84H366Q349 36 310 12T217 -12Q135 -12 90 30T44 144Q44 217 97 256T264 295H366V346Q366 401 336 430T244 459Q197 459 166 438T113 382L65 427Q86 469 132 498T248
528Q342 528 394 482T446 354V70H505V0H460ZM230 56Q260 56 285 63T328 83T356 113T366 150V235H260Q191 235 160 215T128 157V136Q128 98 155 77T230 56ZM416 618Q390 618 379 630T367 664V675Q367 696 378 708T416 721Q442 721 453 709T465 675V664Q465 643 454
631T416 618ZM602 618Q576 618 565 630T553 664V675Q553 696 564 708T602 721Q628 721 639 709T651 675V664Q651 643 640 631T602 618Z" />
<glyph unicode="&#xe5;" glyph-name="aring" horiz-adv-x="534" d="M460 0Q415 0 396 24T371 84H366Q349 36 310 12T217 -12Q135 -12 90 30T44 144Q44 217 97 256T264 295H366V346Q366 401 336 430T244 459Q197 459 166 438T113 382L65 427Q86 469 132 498T248
528Q342 528 394 482T446 354V70H505V0H460ZM230 56Q260 56 285 63T328 83T356 113T366 150V235H260Q191 235 160 215T128 157V136Q128 98 155 77T230 56ZM509 576Q485 576 464 584T427 608T402 645T393 691Q393 716 402 737T426 773T463 797T509 806Q533 806 554
798T591 774T616 737T625 691Q625 666 616 645T592 609T555 585T509 576ZM509 625Q536 625 551 639T567 680V702Q567 728 552 742T509 757Q482 757 467 743T451 702V680Q451 654 466 640T509 625Z" />
<glyph unicode="&#xe6;" glyph-name="ae" horiz-adv-x="864" d="M260 238Q191 236 160 216T128 157V136Q128 98 155 77T231 56Q260 56 284 63T327 83T355 113T366 150V238H260ZM731 298V309Q731 378 694 419T594 461Q561 461 534 450T488 417T457 368T446 305V298H731ZM599
58Q698 58 741 146L798 106Q773 52 722 20T603 -12Q562 -12 529 -1T471 28T431 66T412 104H406Q403 87 389 67T350 30T292 0T215 -12Q137 -12 91 29T44 142Q44 217 99 257T264 298H366V346Q366 401 336 430T247 459Q197 459 166 439T113 383L65 427Q85 468 131
498T249 528Q293 528 322 516T370 486T398 448T411 413H417Q421 430 436 450T475 487T531 516T603 528Q652 528 691 509T759 457T802 377T817 276V238H446V214Q446 181 456 153T486 103T534 70T599 58Z" />
<glyph unicode="&#xe7;" glyph-name="ccedilla" horiz-adv-x="503" d="M277 528Q354 528 400 495T470 408L403 373Q389 413 357 435T277 457Q241 457 214 446T169 414T142 365T133 302V214Q133 146 169 103T277 59Q374 59 417 149L475 110Q452 59 408 27T299 -11L289
-61L292 -64Q311 -58 331 -58Q360 -58 379 -75T399 -124Q399 -145 390 -161T366 -187T330 -202T288 -207Q247 -207 224 -194T189 -166L227 -125Q236 -136 251 -144T288 -153Q307 -153 319 -146T332 -122Q332 -108 319 -98T264 -81L236 -77L249 -11Q152 -1 100 71T47
258Q47 320 62 370T107 455T180 509T277 528Z" />
<glyph unicode="&#xe8;" glyph-name="egrave" horiz-adv-x="549" d="M279 -12Q226 -12 184 7T111 61T64 146T47 258Q47 319 63 369T110 454T183 509T279 528Q331 528 372 509T442 457T486 377T502 276V238H131V214Q131 181 141 153T171 103T219 70T284 58Q333
58 369 81T426 147L483 106Q458 53 405 21T279 -12ZM279 461Q246 461 219 450T173 417T142 368T131 305V298H416V309Q416 378 379 419T279 461ZM423 744L496 779L581 609L529 585L423 744Z" />
<glyph unicode="&#xe9;" glyph-name="eacute" horiz-adv-x="549" d="M279 -12Q226 -12 184 7T111 61T64 146T47 258Q47 319 63 369T110 454T183 509T279 528Q331 528 372 509T442 457T486 377T502 276V238H131V214Q131 181 141 153T171 103T219 70T284 58Q333
58 369 81T426 147L483 106Q458 53 405 21T279 -12ZM279 461Q246 461 219 450T173 417T142 368T131 305V298H416V309Q416 378 379 419T279 461ZM543 585L491 609L576 779L649 744L543 585Z" />
<glyph unicode="&#xea;" glyph-name="ecircumflex" horiz-adv-x="549" d="M279 -12Q226 -12 184 7T111 61T64 146T47 258Q47 319 63 369T110 454T183 509T279 528Q331 528 372 509T442 457T486 377T502 276V238H131V214Q131 181 141 153T171 103T219 70T284 58Q333
58 369 81T426 147L483 106Q458 53 405 21T279 -12ZM279 461Q246 461 219 450T173 417T142 368T131 305V298H416V309Q416 378 379 419T279 461ZM586 765L697 622L653 591L536 708L419 591L375 622L486 765H586Z" />
<glyph unicode="&#xeb;" glyph-name="edieresis" horiz-adv-x="549" d="M279 -12Q226 -12 184 7T111 61T64 146T47 258Q47 319 63 369T110 454T183 509T279 528Q331 528 372 509T442 457T486 377T502 276V238H131V214Q131 181 141 153T171 103T219 70T284 58Q333
58 369 81T426 147L483 106Q458 53 405 21T279 -12ZM279 461Q246 461 219 450T173 417T142 368T131 305V298H416V309Q416 378 379 419T279 461ZM443 618Q417 618 406 630T394 664V675Q394 696 405 708T443 721Q469 721 480 709T492 675V664Q492 643 481 631T443
618ZM629 618Q603 618 592 630T580 664V675Q580 696 591 708T629 721Q655 721 666 709T678 675V664Q678 643 667 631T629 618Z" />
<glyph unicode="&#xec;" glyph-name="igrave" horiz-adv-x="250" d="M85 0V516H165V0H85ZM13 744L86 779L171 609L119 585L13 744Z" />
<glyph unicode="&#xed;" glyph-name="iacute" horiz-adv-x="250" d="M85 0V516H165V0H85ZM133 585L81 609L166 779L239 744L133 585Z" />
<glyph unicode="&#xee;" glyph-name="icircumflex" horiz-adv-x="250" d="M85 0V516H165V0H85ZM176 765L287 622L243 591L126 708L9 591L-35 622L76 765H176Z" />
<glyph unicode="&#xef;" glyph-name="idieresis" horiz-adv-x="250" d="M85 0V516H165V0H85ZM33 618Q7 618 -4 630T-16 664V675Q-16 696 -5 708T33 721Q59 721 70 709T82 675V664Q82 643 71 631T33 618ZM219 618Q193 618 182 630T170 664V675Q170 696 181 708T219
721Q245 721 256 709T268 675V664Q268 643 257 631T219 618Z" />
<glyph unicode="&#xf0;" glyph-name="eth" horiz-adv-x="555" d="M418 712L340 656Q371 625 401 586T454 499T491 394T505 271Q505 201 488 148T441 60T368 6T276 -12Q223 -12 181 7T109 60T63 141T47 246Q47 303 63 350T108 432T180 485T276 504Q325 504 358
478T406 406L410 408Q399 465 365 517T282 615L203 559L172 600L242 650Q210 676 177 698T111 740H234Q249 731 266 719T300 692L385 753L418 712ZM276 57Q341 57 380 99T419 213V279Q419 351 380 393T276 435Q211 435 172 393T133 279V213Q133 141 172 99T276
57Z" />
<glyph unicode="&#xf1;" glyph-name="ntilde" horiz-adv-x="568" d="M85 0V516H165V432H169Q188 476 222 502T315 528Q395 528 441 477T488 331V0H408V317Q408 456 291 456Q267 456 245 450T204 432T176 402T165 358V0H85ZM618 612Q592 612 573 621T538 638Q514
651 498 656T468 662Q451 662 438 655T410 635L377 675Q391 695 414 711T472 728Q498 728 517 719T552 702Q576 689 592 684T622 678Q639 678 652 685T680 705L713 665Q699 645 676 629T618 612Z" />
<glyph unicode="&#xf2;" glyph-name="ograve" horiz-adv-x="560" d="M280 -12Q228 -12 185 7T112 61T64 146T47 258Q47 319 64 369T111 454T185 509T280 528Q332 528 374 509T448 455T496 369T513 258Q513 196 496 147T448 62T375 7T280 -12ZM280 59Q345 59 386
99T427 221V295Q427 377 386 417T280 457Q215 457 174 417T133 295V221Q133 139 174 99T280 59ZM424 744L497 779L582 609L530 585L424 744Z" />
<glyph unicode="&#xf3;" glyph-name="oacute" horiz-adv-x="560" d="M280 -12Q228 -12 185 7T112 61T64 146T47 258Q47 319 64 369T111 454T185 509T280 528Q332 528 374 509T448 455T496 369T513 258Q513 196 496 147T448 62T375 7T280 -12ZM280 59Q345 59 386
99T427 221V295Q427 377 386 417T280 457Q215 457 174 417T133 295V221Q133 139 174 99T280 59ZM544 585L492 609L577 779L650 744L544 585Z" />
<glyph unicode="&#xf4;" glyph-name="ocircumflex" horiz-adv-x="560" d="M280 -12Q228 -12 185 7T112 61T64 146T47 258Q47 319 64 369T111 454T185 509T280 528Q332 528 374 509T448 455T496 369T513 258Q513 196 496 147T448 62T375 7T280 -12ZM280 59Q345
59 386 99T427 221V295Q427 377 386 417T280 457Q215 457 174 417T133 295V221Q133 139 174 99T280 59ZM587 765L698 622L654 591L537 708L420 591L376 622L487 765H587Z" />
<glyph unicode="&#xf5;" glyph-name="otilde" horiz-adv-x="560" d="M280 -12Q228 -12 185 7T112 61T64 146T47 258Q47 319 64 369T111 454T185 509T280 528Q332 528 374 509T448 455T496 369T513 258Q513 196 496 147T448 62T375 7T280 -12ZM280 59Q345 59 386
99T427 221V295Q427 377 386 417T280 457Q215 457 174 417T133 295V221Q133 139 174 99T280 59ZM610 612Q584 612 565 621T530 638Q506 651 490 656T460 662Q443 662 430 655T402 635L369 675Q383 695 406 711T464 728Q490 728 509 719T544 702Q568 689 584 684T614
678Q631 678 644 685T672 705L705 665Q691 645 668 629T610 612Z" />
<glyph unicode="&#xf6;" glyph-name="odieresis" horiz-adv-x="560" d="M280 -12Q228 -12 185 7T112 61T64 146T47 258Q47 319 64 369T111 454T185 509T280 528Q332 528 374 509T448 455T496 369T513 258Q513 196 496 147T448 62T375 7T280 -12ZM280 59Q345 59
386 99T427 221V295Q427 377 386 417T280 457Q215 457 174 417T133 295V221Q133 139 174 99T280 59ZM444 618Q418 618 407 630T395 664V675Q395 696 406 708T444 721Q470 721 481 709T493 675V664Q493 643 482 631T444 618ZM630 618Q604 618 593 630T581 664V675Q581
696 592 708T630 721Q656 721 667 709T679 675V664Q679 643 668 631T630 618Z" />
<glyph unicode="&#xf7;" glyph-name="divide" horiz-adv-x="600" d="M67 271V339H533V271H67ZM300 52Q265 52 252 66T238 100V122Q238 142 251 156T300 170Q335 170 348 156T362 122V100Q362 80 349 66T300 52ZM300 440Q265 440 252 454T238 488V510Q238 530 251
544T300 558Q335 558 348 544T362 510V488Q362 468 349 454T300 440Z" />
<glyph unicode="&#xf8;" glyph-name="oslash" horiz-adv-x="568" d="M35 -6L102 78Q51 149 51 258Q51 319 68 369T115 454T189 509T284 528Q326 528 361 515T426 479L488 556L533 522L466 437Q490 403 503 358T517 258Q517 196 500 147T452 62T379 7T284 -12Q201
-12 142 36L80 -40L35 -6ZM284 59Q349 59 390 99T431 221V295Q431 319 427 339T416 376L186 92Q223 59 284 59ZM137 221Q137 173 152 139L382 424Q343 457 284 457Q219 457 178 417T137 295V221Z" />
<glyph unicode="&#xf9;" glyph-name="ugrave" horiz-adv-x="568" d="M403 84H399Q391 66 380 49T351 18T310 -4T254 -12Q174 -12 127 39T80 185V516H160V199Q160 60 278 60Q302 60 324 66T364 84T392 114T403 159V516H483V0H403V84ZM426 744L499 779L584 609L532
585L426 744Z" />
<glyph unicode="&#xfa;" glyph-name="uacute" horiz-adv-x="568" d="M403 84H399Q391 66 380 49T351 18T310 -4T254 -12Q174 -12 127 39T80 185V516H160V199Q160 60 278 60Q302 60 324 66T364 84T392 114T403 159V516H483V0H403V84ZM546 585L494 609L579 779L652
744L546 585Z" />
<glyph unicode="&#xfb;" glyph-name="ucircumflex" horiz-adv-x="568" d="M403 84H399Q391 66 380 49T351 18T310 -4T254 -12Q174 -12 127 39T80 185V516H160V199Q160 60 278 60Q302 60 324 66T364 84T392 114T403 159V516H483V0H403V84ZM589 765L700 622L656
591L539 708L422 591L378 622L489 765H589Z" />
<glyph unicode="&#xfc;" glyph-name="udieresis" horiz-adv-x="568" d="M403 84H399Q391 66 380 49T351 18T310 -4T254 -12Q174 -12 127 39T80 185V516H160V199Q160 60 278 60Q302 60 324 66T364 84T392 114T403 159V516H483V0H403V84ZM446 618Q420 618 409 630T397
664V675Q397 696 408 708T446 721Q472 721 483 709T495 675V664Q495 643 484 631T446 618ZM632 618Q606 618 595 630T583 664V675Q583 696 594 708T632 721Q658 721 669 709T681 675V664Q681 643 670 631T632 618Z" />
<glyph unicode="&#xfd;" glyph-name="yacute" horiz-adv-x="499" d="M403 516H482L251 -120Q242 -143 233 -158T211 -183T179 -196T131 -200H90V-130H171L210 -20L17 516H97L221 165L245 81H250L278 165L403 516ZM514 585L462 609L547 779L620 744L514 585Z" />
<glyph unicode="&#xfe;" glyph-name="thorn" horiz-adv-x="580" d="M85 740H165V432H169Q189 481 227 504T320 528Q368 528 407 509T473 455T515 370T530 258Q530 196 516 146T474 61T407 7T320 -12Q215 -12 169 84H165V-200H85V740ZM298 60Q366 60 405 102T444
214V302Q444 371 405 413T298 456Q271 456 247 449T204 428T176 397T165 357V165Q165 140 175 121T204 88T246 67T298 60Z" />
<glyph unicode="&#xff;" glyph-name="ydieresis" horiz-adv-x="499" d="M403 516H482L251 -120Q242 -143 233 -158T211 -183T179 -196T131 -200H90V-130H171L210 -20L17 516H97L221 165L245 81H250L278 165L403 516ZM414 618Q388 618 377 630T365 664V675Q365
696 376 708T414 721Q440 721 451 709T463 675V664Q463 643 452 631T414 618ZM600 618Q574 618 563 630T551 664V675Q551 696 562 708T600 721Q626 721 637 709T649 675V664Q649 643 638 631T600 618Z" />
<glyph unicode="&#x2013;" glyph-name="endash" horiz-adv-x="588" d="M36 266V342H552V266H36Z" />
<glyph unicode="&#x2014;" glyph-name="emdash" horiz-adv-x="780" d="M36 266V342H744V266H36Z" />
<glyph unicode="&#x2018;" glyph-name="quoteleft" horiz-adv-x="273" d="M132 490Q100 490 86 506T71 549V563Q71 604 95 653T162 740H229Q199 708 181 680T154 616Q174 611 183 597T193 563V549Q193 523 179 507T132 490Z" />
<glyph unicode="&#x2019;" glyph-name="quoteright" horiz-adv-x="273" d="M141 750Q173 750 187 734T202 691V677Q202 636 178 587T111 500H44Q74 532 92 560T119 624Q99 629 90 643T80 677V691Q80 717 94 733T141 750Z" />
<glyph unicode="&#x201a;" glyph-name="quotesinglbase" horiz-adv-x="274" d="M132 134Q164 134 178 118T193 75V61Q193 20 169 -29T102 -116H35Q65 -84 83 -56T110 8Q90 13 81 27T71 61V75Q71 101 85 117T132 134Z" />
<glyph unicode="&#x201c;" glyph-name="quotedblleft" horiz-adv-x="475" d="M132 490Q100 490 86 506T71 549V563Q71 604 95 653T162 740H229Q199 708 181 680T154 616Q174 611 183 597T193 563V549Q193 523 179 507T132 490ZM334 490Q302 490 288 506T273 549V563Q273
604 297 653T364 740H431Q401 708 383 680T356 616Q376 611 385 597T395 563V549Q395 523 381 507T334 490Z" />
<glyph unicode="&#x201d;" glyph-name="quotedblright" horiz-adv-x="474" d="M141 750Q173 750 187 734T202 691V677Q202 636 178 587T111 500H44Q74 532 92 560T119 624Q99 629 90 643T80 677V691Q80 717 94 733T141 750ZM342 750Q374 750 388 734T403 691V677Q403
636 379 587T312 500H245Q275 532 293 560T320 624Q300 629 291 643T281 677V691Q281 717 295 733T342 750Z" />
<glyph unicode="&#x201e;" glyph-name="quotedblbase" horiz-adv-x="475" d="M132 134Q164 134 178 118T193 75V61Q193 20 169 -29T102 -116H35Q65 -84 83 -56T110 8Q90 13 81 27T71 61V75Q71 101 85 117T132 134ZM333 134Q365 134 379 118T394 75V61Q394 20 370
-29T303 -116H236Q266 -84 284 -56T311 8Q291 13 282 27T272 61V75Q272 101 286 117T333 134Z" />
<glyph unicode="&#x2022;" glyph-name="bullet" horiz-adv-x="396" d="M198 186Q131 186 104 216T76 290V318Q76 362 103 392T198 422Q265 422 292 392T320 318V290Q320 246 293 216T198 186Z" />
<glyph unicode="&#x2039;" glyph-name="guilsinglleft" horiz-adv-x="304" d="M228 80L36 246V322L228 488L252 434L115 284L252 134L228 80Z" />
<glyph unicode="&#x203a;" glyph-name="guilsinglright" horiz-adv-x="304" d="M52 134L189 284L52 434L76 488L268 322V246L76 80L52 134Z" />
</font>
</defs>
</svg>
