<?xml version="1.0" standalone="no"?>
<!DOCTYPE svg PUBLIC "-//W3C//DTD SVG 1.1//EN" "http://www.w3.org/Graphics/SVG/1.1/DTD/svg11.dtd">
<svg xmlns="http://www.w3.org/2000/svg">
<defs >
<font id="IBMPlexSans" horiz-adv-x="601" ><font-face
    font-family="IBM Plex Sans Medium"
    units-per-em="1000"
    panose-1="2 11 6 3 5 2 3 0 2 3"
    ascent="1025"
    descent="-275"
    alphabetic="0" />
<glyph unicode=" " glyph-name="space" horiz-adv-x="236" />
<glyph unicode="!" glyph-name="exclam" horiz-adv-x="298" d="M124 200L89 499V698H207V499L174 200H124ZM149 -12Q111 -12 94 6T76 54V71Q76 100 93 118T149 137Q187 137 204 119T222 71V54Q222 25 205 7T149 -12Z" />
<glyph unicode="&quot;" glyph-name="quotedbl" horiz-adv-x="451" d="M78 440V740H175V440H78ZM276 440V740H373V440H276Z" />
<glyph unicode="#" glyph-name="numbersign" horiz-adv-x="678" d="M391 191H233L200 0H123L156 191H40V264H169L198 434H82V507H211L244 698H320L287 507H445L478 698H555L522 507H638V434H509L480 264H596V191H467L434 0H358L391 191ZM403 264L433 434H275L245
264H403Z" />
<glyph unicode="$" glyph-name="dollar" horiz-adv-x="599" d="M261 -82V4Q185 10 133 41T43 117L116 183Q147 145 183 122T268 93V317Q160 340 112 386T64 509Q64 589 117 636T261 693V780H346V693Q410 687 457 661T540 590L466 529Q444 558 414 577T340 604V399Q399
386 438 368T501 328T537 276T548 207Q548 126 496 72T346 6V-82H261ZM443 200Q443 238 421 262T340 302V94Q389 102 416 130T443 200ZM168 514Q168 472 192 451T268 415V605Q220 598 194 575T168 514Z" />
<glyph unicode="%" glyph-name="percent" horiz-adv-x="947" d="M181 0L665 698H766L282 0H181ZM226 314Q145 314 102 364T59 512Q59 609 102 659T226 710Q307 710 350 660T393 512Q393 415 350 365T226 314ZM226 381Q297 381 297 484V540Q297 643 226 643Q155
643 155 540V484Q155 381 226 381ZM721 -12Q640 -12 597 38T554 186Q554 283 597 333T721 384Q802 384 845 334T888 186Q888 89 845 39T721 -12ZM721 55Q792 55 792 158V214Q792 317 721 317Q650 317 650 214V158Q650 55 721 55Z" />
<glyph unicode="&amp;" glyph-name="ampersand" horiz-adv-x="707" d="M489 71Q476 58 458 44T415 17T359 -4T287 -12Q233 -12 191 3T121 44T78 105T63 182Q63 219 74 248T105 301T150 343T205 378Q172 413 149 454T126 542Q126 577 139 608T178 661T238 697T317
710Q357 710 391 699T450 668T488 620T502 556Q502 522 490 495T457 445T409 403T350 365L486 218Q500 254 508 294T518 375H667V283H599Q584 207 553 148L690 0H554L489 71ZM317 623Q281 623 256 602T231 545V537Q231 511 247 485T295 425Q337 448 367 476T397
542V550Q397 585 375 604T317 623ZM300 81Q342 81 374 95T430 134L260 317Q222 296 199 270T175 199V186Q175 138 208 110T300 81Z" />
<glyph unicode="&apos;" glyph-name="quotesingle" horiz-adv-x="253" d="M78 440V740H175V440H78Z" />
<glyph unicode="(" glyph-name="parenleft" horiz-adv-x="336" d="M63 311Q63 384 76 451T114 576T170 681T241 760H344Q303 722 270 675T214 575T179 465T166 351V271Q166 214 178 157T214 47T270 -53T344 -138H241Q203 -106 171 -59T114 46T77 171T63 311Z" />
<glyph unicode=")" glyph-name="parenright" horiz-adv-x="336" d="M273 311Q273 238 260 171T222 46T166 -59T95 -138H-8Q33 -101 66 -54T122 47T157 157T170 271V351Q170 408 158 465T122 575T66 675T-8 760H95Q133 728 165 681T222 576T259 451T273 311Z" />
<glyph unicode="*" glyph-name="asterisk" horiz-adv-x="514" d="M163 324L87 377L193 509L34 555L63 642L216 582L209 747H304L297 582L450 642L480 555L320 509L426 377L350 324L256 464L163 324Z" />
<glyph unicode="+" glyph-name="plus" horiz-adv-x="600" d="M251 63V261H67V350H251V548H349V350H533V261H349V63H251Z" />
<glyph unicode="," glyph-name="comma" horiz-adv-x="290" d="M145 139Q182 139 200 120T218 71V55Q218 6 192 -47T120 -138H39Q71 -106 92 -76T124 -9Q98 -4 85 13T72 55V71Q72 101 90 120T145 139Z" />
<glyph unicode="-" glyph-name="hyphen" horiz-adv-x="401" d="M62 249V360H339V249H62Z" />
<glyph unicode="." glyph-name="period" horiz-adv-x="290" d="M145 -12Q108 -12 90 7T72 56V71Q72 100 90 119T145 139Q182 139 200 120T218 71V56Q218 27 200 8T145 -12Z" />
<glyph unicode="/" glyph-name="slash" horiz-adv-x="417" d="M7 -151L284 740H378L101 -151H7Z" />
<glyph unicode="0" glyph-name="zero" horiz-adv-x="600" d="M300 -12Q235 -12 187 12T108 83T62 196T47 349Q47 434 62 501T108 615T187 685T300 710Q430 710 491 615T553 349Q553 178 492 83T300 -12ZM300 84Q336 84 361 98T403 140T426 204T433 288V410Q433
456 426 493T403 558T362 599T300 614Q264 614 239 600T197 558T174 494T167 410V288Q167 242 174 205T197 140T238 99T300 84Z" />
<glyph unicode="1" glyph-name="one" horiz-adv-x="600" d="M88 0V94H284V616H276L114 443L45 505L223 698H395V94H565V0H88Z" />
<glyph unicode="2" glyph-name="two" horiz-adv-x="600" d="M541 0H67V108L290 307Q343 355 371 398T400 490V503Q400 554 370 583T287 612Q258 612 237 604T199 580T173 545T156 502L57 540Q68 573 87 603T135 658T203 696T296 710Q349 710 391 695T461 652T505
586T520 503Q520 461 507 425T471 357T418 296T353 237L189 96H541V0Z" />
<glyph unicode="3" glyph-name="three" horiz-adv-x="600" d="M262 411Q327 411 358 438T389 509V516Q389 564 359 589T278 615Q228 615 193 593T134 530L59 595Q75 618 95 639T142 675T203 700T281 710Q330 710 372 698T444 663T491 606T508 530Q508 497 498
470T469 423T426 389T374 370V365Q404 359 430 346T477 311T508 260T520 192Q520 146 502 109T452 44T373 3T271 -12Q222 -12 185 -2T120 26T70 66T32 113L115 178Q128 157 142 140T175 110T217 90T271 83Q335 83 369 113T403 198V205Q403 259 367 287T265 315H191V411H262Z"
/>
<glyph unicode="4" glyph-name="four" horiz-adv-x="600" d="M359 0V136H35V233L318 698H466V225H561V136H466V0H359ZM131 225H359V595H352L131 225Z" />
<glyph unicode="5" glyph-name="five" horiz-adv-x="600" d="M508 600H198L180 353H187Q199 374 212 390T242 419T281 437T333 444Q378 444 416 429T483 386T528 318T544 226Q544 174 528 130T479 55T401 6T295 -12Q248 -12 212 -2T149 26T101 66T64 113L146 178Q159
157 173 140T205 110T245 90T297 83Q359 83 392 117T426 211V223Q426 283 393 317T297 351Q252 351 225 334T179 296L86 309L112 698H508V600Z" />
<glyph unicode="6" glyph-name="six" horiz-adv-x="600" d="M302 -12Q244 -12 199 7T122 61T73 147T56 260Q56 336 79 403T138 526T218 625T306 698H456Q397 655 350 615T268 533T210 444T173 341L180 339Q191 360 205 378T239 411T284 433T342 441Q386 441 423
426T488 383T531 314T547 225Q547 172 530 129T480 54T403 6T302 -12ZM302 80Q363 80 397 112T431 208V222Q431 285 397 317T302 350Q241 350 207 318T173 222V208Q173 145 207 113T302 80Z" />
<glyph unicode="7" glyph-name="seven" horiz-adv-x="600" d="M171 0L424 605H160V476H63V698H536V600L290 0H171Z" />
<glyph unicode="8" glyph-name="eight" horiz-adv-x="600" d="M300 -12Q239 -12 193 3T115 46T67 110T50 190Q50 260 88 302T190 362V370Q136 389 104 430T71 531Q71 571 86 604T131 660T203 697T300 710Q354 710 397 697T469 661T513 604T529 531Q529 471 497
430T410 370V362Q473 345 511 303T550 190Q550 147 534 110T486 46T408 4T300 -12ZM300 79Q363 79 397 108T432 189V209Q432 261 398 290T300 319Q237 319 203 290T168 209V189Q168 137 202 108T300 79ZM300 406Q358 406 388 431T419 504V521Q419 569 389 594T300
619Q242 619 212 594T181 521V504Q181 456 211 431T300 406Z" />
<glyph unicode="9" glyph-name="nine" horiz-adv-x="600" d="M544 438Q544 362 521 295T462 172T382 72T294 0H144Q203 43 250 83T332 165T390 254T427 357L420 359Q409 338 395 320T361 287T316 265T258 257Q214 257 177 272T112 315T69 383T53 473Q53 525 70
569T120 644T197 692T298 710Q356 710 401 691T478 637T527 551T544 438ZM298 348Q359 348 393 380T427 476V490Q427 553 393 585T298 618Q237 618 203 586T169 490V476Q169 413 203 381T298 348Z" />
<glyph unicode=":" glyph-name="colon" horiz-adv-x="310" d="M155 -12Q118 -12 100 7T82 56V71Q82 100 100 119T155 139Q192 139 210 120T228 71V56Q228 27 210 8T155 -12ZM155 381Q118 381 100 400T82 449V464Q82 493 100 512T155 532Q192 532 210 513T228 464V449Q228
420 210 401T155 381Z" />
<glyph unicode=";" glyph-name="semicolon" horiz-adv-x="310" d="M155 139Q192 139 210 120T228 71V55Q228 6 202 -47T130 -138H49Q81 -106 102 -76T134 -9Q108 -4 95 13T82 55V71Q82 101 100 120T155 139ZM155 381Q118 381 100 400T82 449V464Q82 493 100 512T155
532Q192 532 210 513T228 464V449Q228 420 210 401T155 381Z" />
<glyph unicode="&lt;" glyph-name="less" horiz-adv-x="600" d="M96 246V328L504 582V470L205 291V284L504 104V-8L96 246Z" />
<glyph unicode="=" glyph-name="equal" horiz-adv-x="600" d="M67 368V457H533V368H67ZM67 154V243H533V154H67Z" />
<glyph unicode="&gt;" glyph-name="greater" horiz-adv-x="600" d="M96 104L395 284V291L96 470V582L504 328V246L96 -8V104Z" />
<glyph unicode="?" glyph-name="question" horiz-adv-x="487" d="M170 219V378Q251 382 294 412T338 503V517Q338 563 310 588T235 614Q185 614 155 585T114 511L19 549Q28 580 45 609T90 660T154 696T239 710Q288 710 328 696T396 657T439 595T454 514Q454 469
439 434T398 373T340 333T274 311V219H170ZM223 -12Q185 -12 168 6T150 54V71Q150 100 167 118T223 137Q261 137 278 119T296 71V54Q296 25 279 7T223 -12Z" />
<glyph unicode="@" glyph-name="at" horiz-adv-x="896" d="M676 -121H453Q363 -121 291 -92T169 -8T91 121T63 289Q63 381 91 458T170 590T295 677T459 708Q536 708 604 685T724 614T805 495T835 328Q835 273 824 227T791 146T734 93T655 74Q604 74 576 98T544
163H539Q524 122 495 98T419 74Q385 74 355 87T303 127T267 194T254 289Q254 343 267 383T302 450T355 490T419 504Q465 504 491 482T528 427H533V495H620V205Q620 172 632 159T670 146Q712 146 734 189T757 314V353Q757 418 735 470T672 559T577 616T458 636Q387
636 329 612T229 545T164 444T141 316V266Q141 196 163 139T227 40T325 -25T454 -48H676V-121ZM445 151Q487 151 510 174T533 233V353Q533 385 510 406T445 428Q399 428 375 401T351 328V251Q351 206 375 179T445 151Z" />
<glyph unicode="A" glyph-name="A" horiz-adv-x="662" d="M522 0L459 189H198L137 0H22L260 698H402L640 0H522ZM331 594H326L225 286H431L331 594Z" />
<glyph unicode="B" glyph-name="B" horiz-adv-x="659" d="M86 698H395Q482 698 531 649T581 518Q581 479 570 452T542 407T503 381T460 370V364Q481 363 506 354T554 326T591 276T606 201Q606 159 593 122T555 58T498 16T426 0H86V698ZM199 97H393Q437 97 462
120T487 186V220Q487 263 462 286T393 309H199V97ZM199 403H374Q416 403 439 424T462 486V518Q462 558 439 579T374 601H199V403Z" />
<glyph unicode="C" glyph-name="C" horiz-adv-x="634" d="M348 -12Q211 -12 133 80T55 349Q55 437 75 504T133 617T225 686T348 710Q439 710 500 670T597 552L502 500Q484 550 447 579T348 609Q267 609 221 554T175 402V296Q175 199 221 144T348 89Q411 89 450
121T509 205L600 150Q565 74 502 31T348 -12Z" />
<glyph unicode="D" glyph-name="D" horiz-adv-x="683" d="M86 698H333Q400 698 454 676T547 611T607 502T628 349Q628 262 607 197T548 88T455 22T333 0H86V698ZM333 100Q411 100 459 149T507 293V405Q507 500 459 549T333 598H199V100H333Z" />
<glyph unicode="E" glyph-name="E" horiz-adv-x="593" d="M86 0V698H533V598H199V404H502V304H199V100H533V0H86Z" />
<glyph unicode="F" glyph-name="F" horiz-adv-x="570" d="M86 0V698H522V598H199V404H486V304H199V0H86Z" />
<glyph unicode="G" glyph-name="G" horiz-adv-x="705" d="M535 106H531Q520 55 472 22T343 -12Q281 -12 228 11T137 80T77 193T55 349Q55 436 77 503T139 617T235 686T360 710Q454 710 519 669T620 553L528 499Q508 548 466 578T360 609Q277 609 227 556T176 406V292Q176
195 226 142T360 89Q393 89 423 97T475 122T511 163T525 221V275H381V372H634V0H535V106Z" />
<glyph unicode="H" glyph-name="H" horiz-adv-x="714" d="M515 304H199V0H86V698H199V404H515V698H628V0H515V304Z" />
<glyph unicode="I" glyph-name="I" horiz-adv-x="416" d="M56 0V92H151V606H56V698H360V606H264V92H360V0H56Z" />
<glyph unicode="J" glyph-name="J" horiz-adv-x="531" d="M449 698V190Q449 144 434 107T392 44T325 3T237 -12Q146 -12 94 36T27 163L131 186Q140 141 165 115T237 89Q282 89 309 117T336 202V604H108V698H449Z" />
<glyph unicode="K" glyph-name="K" horiz-adv-x="660" d="M295 326L199 216V0H86V698H199V344H203L303 471L491 698H623L374 404L643 0H507L295 326Z" />
<glyph unicode="L" glyph-name="L" horiz-adv-x="513" d="M86 0V698H199V100H483V0H86Z" />
<glyph unicode="M" glyph-name="M" horiz-adv-x="814" d="M620 534H615L560 421L407 142L254 421L199 534H194V0H86V698H220L407 343H413L600 698H728V0H620V534Z" />
<glyph unicode="N" glyph-name="N" horiz-adv-x="714" d="M274 386L197 534H194V0H86V698H212L440 312L517 164H520V698H628V0H502L274 386Z" />
<glyph unicode="O" glyph-name="O" horiz-adv-x="712" d="M356 -12Q288 -12 233 11T138 80T77 193T55 349Q55 437 76 504T137 617T232 686T356 710Q424 710 479 687T574 618T635 505T657 349Q657 261 636 194T575 81T480 12T356 -12ZM356 89Q396 89 429 103T486
143T523 208T536 294V404Q536 452 523 490T487 554T430 595T356 609Q315 609 282 595T226 555T189 490T176 404V294Q176 246 189 208T225 144T282 103T356 89Z" />
<glyph unicode="P" glyph-name="P" horiz-adv-x="627" d="M86 0V698H386Q483 698 536 641T589 488Q589 392 536 335T386 278H199V0H86ZM199 377H379Q422 377 446 399T470 464V512Q470 554 446 576T379 599H199V377Z" />
<glyph unicode="Q" glyph-name="Q" horiz-adv-x="712" d="M523 -173H424Q365 -173 338 -143T310 -62V-9Q251 -2 204 25T124 97T73 205T55 349Q55 437 76 504T137 617T232 686T356 710Q424 710 479 687T574 618T635 505T657 349Q657 193 592 103T416 -7V-79H523V-173ZM356
89Q396 89 429 103T486 143T523 208T536 294V404Q536 452 523 490T487 554T430 595T356 609Q315 609 282 595T226 555T189 490T176 404V294Q176 246 189 208T225 144T282 103T356 89Z" />
<glyph unicode="R" glyph-name="R" horiz-adv-x="655" d="M199 0H86V698H387Q481 698 535 642T589 488Q589 413 555 364T453 294L604 0H478L338 282H199V0ZM379 377Q422 377 446 399T470 464V512Q470 554 446 576T379 599H199V377H379Z" />
<glyph unicode="S" glyph-name="S" horiz-adv-x="598" d="M295 -12Q207 -12 146 20T40 106L118 179Q155 134 199 111T301 88Q368 88 402 118T436 199Q436 240 412 264T327 300L265 311Q163 330 112 378T61 510Q61 556 78 593T127 656T204 696T305 710Q384 710
442 683T541 603L462 533Q435 568 396 589T299 610Q239 610 206 586T173 516Q173 472 200 451T284 418L346 405Q451 385 499 337T548 205Q548 156 531 116T482 48T402 4T295 -12Z" />
<glyph unicode="T" glyph-name="T" horiz-adv-x="577" d="M345 598V0H232V598H24V698H553V598H345Z" />
<glyph unicode="U" glyph-name="U" horiz-adv-x="686" d="M193 698V268Q193 179 227 134T343 89Q425 89 459 134T493 268V698H604V286Q604 209 590 153T545 61T465 6T343 -12Q271 -12 222 6T141 60T96 153T82 286V698H193Z" />
<glyph unicode="V" glyph-name="V" horiz-adv-x="628" d="M247 0L18 698H135L246 353L313 110H317L385 353L496 698H610L378 0H247Z" />
<glyph unicode="W" glyph-name="W" horiz-adv-x="926" d="M189 0L24 698H139L210 362L259 130H262L318 362L401 698H527L609 362L664 131H667L718 362L791 698H902L730 0H603L514 361L462 573H460L407 361L316 0H189Z" />
<glyph unicode="X" glyph-name="X" horiz-adv-x="639" d="M618 0H485L316 278H313L146 0H21L247 357L29 698H162L321 438H323L484 698H609L389 358L618 0Z" />
<glyph unicode="Y" glyph-name="Y" horiz-adv-x="617" d="M251 0V275L11 698H140L310 387H313L482 698H606L364 277V0H251Z" />
<glyph unicode="Z" glyph-name="Z" horiz-adv-x="591" d="M554 0H37V101L416 598H57V698H543V597L164 100H554V0Z" />
<glyph unicode="[" glyph-name="bracketleft" horiz-adv-x="325" d="M86 -138V760H269V679H184V-57H269V-138H86Z" />
<glyph unicode="\" glyph-name="backslash" horiz-adv-x="417" d="M316 -151L39 740H133L410 -151H316Z" />
<glyph unicode="]" glyph-name="bracketright" horiz-adv-x="325" d="M239 760V-138H56V-57H141V679H56V760H239Z" />
<glyph unicode="^" glyph-name="asciicircum" horiz-adv-x="600" d="M467 288L300 587H295L129 288L47 331L250 698H350L553 331L467 288Z" />
<glyph unicode="_" glyph-name="underscore" horiz-adv-x="561" d="M30 -176V-82H531V-176H30Z" />
<glyph unicode="`" glyph-name="grave" horiz-adv-x="600" d="M171 749L266 795L357 615L289 582L171 749Z" />
<glyph unicode="a" glyph-name="a" horiz-adv-x="549" d="M459 0Q416 0 393 24T365 87H360Q345 38 305 13T208 -12Q127 -12 84 30T40 143Q40 221 96 260T262 299H356V343Q356 391 330 417T249 443Q203 443 174 423T125 372L60 431Q86 475 133 503T256 532Q357
532 411 485T465 350V89H520V0H459ZM239 71Q290 71 323 93T356 154V229H264Q151 229 151 159V141Q151 106 174 89T239 71Z" />
<glyph unicode="b" glyph-name="b" horiz-adv-x="592" d="M78 740H187V434H192Q209 481 247 506T338 532Q437 532 491 461T545 260Q545 131 491 60T338 -12Q286 -12 248 14T192 86H187V0H78V740ZM305 82Q362 82 396 118T430 215V305Q430 365 396 401T305 438Q255
438 221 414T187 349V171Q187 131 221 107T305 82Z" />
<glyph unicode="c" glyph-name="c" horiz-adv-x="510" d="M279 -12Q223 -12 179 7T105 61T59 147T43 260Q43 322 59 372T105 458T179 513T279 532Q357 532 407 497T480 404L390 362Q379 398 352 419T279 441Q219 441 189 404T158 306V213Q158 153 188 116T279
78Q327 78 355 101T401 164L484 120Q458 56 406 22T279 -12Z" />
<glyph unicode="d" glyph-name="d" horiz-adv-x="592" d="M405 86H400Q383 40 345 14T254 -12Q155 -12 101 59T47 260Q47 389 101 460T254 532Q306 532 344 507T400 434H405V740H514V0H405V86ZM287 82Q337 82 371 106T405 171V349Q405 389 371 413T287 438Q230
438 196 402T162 305V215Q162 155 196 119T287 82Z" />
<glyph unicode="e" glyph-name="e" horiz-adv-x="556" d="M282 -12Q226 -12 182 7T107 61T60 147T43 260Q43 322 59 372T107 458T182 513T282 532Q339 532 382 512T455 457T498 374T513 273V232H156V215Q156 155 191 117T293 78Q341 78 374 99T430 156L494 93Q465
45 410 17T282 -12ZM282 447Q254 447 231 437T191 409T165 366T156 311V304H398V314Q398 374 367 410T282 447Z" />
<glyph unicode="f" glyph-name="f" horiz-adv-x="340" d="M105 431H26V520H105V606Q105 669 138 704T237 740H323V651H214V520H323V431H214V0H105V431Z" />
<glyph unicode="g" glyph-name="g" horiz-adv-x="537" d="M534 -49Q534 -130 472 -171T270 -212Q206 -212 162 -204T89 -179T47 -140T34 -87Q34 -44 57 -20T123 13V24Q64 43 64 104Q64 144 91 165T156 196V200Q110 222 86 261T61 354Q61 434 114 483T268 532Q323
532 362 516V530Q362 565 378 584T430 604H510V516H404V495Q439 472 458 436T477 354Q477 275 423 227T269 178Q231 178 201 186Q181 179 166 167T151 134Q151 113 170 104T224 95H352Q448 95 491 57T534 -49ZM432 -61Q432 -34 412 -18T337 -2H161Q125 -23 125
-62Q125 -94 150 -113T237 -133H305Q432 -133 432 -61ZM269 257Q317 257 343 278T370 345V365Q370 410 344 431T269 453Q221 453 195 432T168 365V345Q168 300 194 279T269 257Z" />
<glyph unicode="h" glyph-name="h" horiz-adv-x="580" d="M78 740H187V434H192Q209 476 243 504T338 532Q418 532 462 480T507 330V0H398V317Q398 438 300 438Q279 438 259 433T222 416T197 388T187 349V0H78V740Z" />
<glyph unicode="i" glyph-name="i" horiz-adv-x="265" d="M133 613Q99 613 84 629T68 670V687Q68 712 83 728T133 744Q167 744 182 728T197 687V670Q197 645 182 629T133 613ZM78 520H187V0H78V520Z" />
<glyph unicode="j" glyph-name="j" horiz-adv-x="265" d="M78 520H187V-70Q187 -130 157 -165T60 -200H-3V-111H78V520ZM133 613Q99 613 84 629T68 670V687Q68 712 83 728T133 744Q167 744 182 728T197 687V670Q197 645 182 629T133 613Z" />
<glyph unicode="k" glyph-name="k" horiz-adv-x="547" d="M78 740H187V286H192L264 379L389 520H516L334 319L538 0H408L259 248L187 170V0H78V740Z" />
<glyph unicode="l" glyph-name="l" horiz-adv-x="285" d="M189 0Q133 0 106 28T78 108V740H187V89H259V0H189Z" />
<glyph unicode="m" glyph-name="m" horiz-adv-x="882" d="M78 0V520H187V434H192Q200 454 211 472T239 503T278 524T331 532Q384 532 425 506T485 426H488Q502 470 542 501T645 532Q723 532 766 480T809 330V0H700V317Q700 377 677 407T604 438Q583 438 564 433T531
416T507 388T498 349V0H389V317Q389 438 294 438Q274 438 255 433T220 416T196 388T187 349V0H78Z" />
<glyph unicode="n" glyph-name="n" horiz-adv-x="580" d="M78 0V520H187V434H192Q209 476 243 504T338 532Q418 532 462 480T507 330V0H398V316Q398 438 300 438Q279 438 259 433T222 416T197 388T187 348V0H78Z" />
<glyph unicode="o" glyph-name="o" horiz-adv-x="564" d="M282 -12Q228 -12 184 7T108 61T60 147T43 260Q43 322 60 372T108 458T183 513T282 532Q336 532 380 513T456 459T504 373T521 260Q521 198 504 148T456 62T381 7T282 -12ZM282 78Q338 78 372 112T406
216V304Q406 373 372 407T282 442Q226 442 192 408T158 304V216Q158 147 192 113T282 78Z" />
<glyph unicode="p" glyph-name="p" horiz-adv-x="592" d="M78 520H187V434H192Q209 481 247 506T338 532Q437 532 491 461T545 260Q545 131 491 60T338 -12Q286 -12 248 14T192 86H187V-200H78V520ZM305 82Q362 82 396 118T430 215V305Q430 365 396 401T305 438Q255
438 221 414T187 349V171Q187 131 221 107T305 82Z" />
<glyph unicode="q" glyph-name="q" horiz-adv-x="592" d="M405 86H400Q383 40 345 14T254 -12Q155 -12 101 59T47 260Q47 389 101 460T254 532Q306 532 344 507T400 434H405V520H514V-200H405V86ZM287 82Q337 82 371 106T405 171V349Q405 389 371 413T287 438Q230
438 196 402T162 305V215Q162 155 196 119T287 82Z" />
<glyph unicode="r" glyph-name="r" horiz-adv-x="383" d="M78 0V520H187V420H192Q203 460 238 490T335 520H364V415H321Q256 415 222 394T187 332V0H78Z" />
<glyph unicode="s" glyph-name="s" horiz-adv-x="494" d="M243 -12Q169 -12 119 14T32 86L102 150Q131 115 166 96T249 76Q297 76 320 94T344 146Q344 171 328 188T270 211L222 217Q142 227 97 263T51 372Q51 410 65 439T104 489T165 521T244 532Q314 532 358
510T438 449L371 385Q351 409 319 426T244 444Q199 444 178 426T156 379Q156 349 175 334T236 312L284 306Q370 293 409 256T449 155Q449 117 435 87T393 34T328 0T243 -12Z" />
<glyph unicode="t" glyph-name="t" horiz-adv-x="365" d="M222 0Q165 0 136 29T107 113V431H26V520H70Q97 520 107 532T118 571V662H216V520H325V431H216V89H317V0H222Z" />
<glyph unicode="u" glyph-name="u" horiz-adv-x="580" d="M393 86H389Q382 67 371 49T342 18T300 -4T243 -12Q162 -12 118 40T73 189V520H182V203Q182 82 282 82Q303 82 323 87T358 104T383 132T393 172V520H502V0H393V86Z" />
<glyph unicode="v" glyph-name="v" horiz-adv-x="512" d="M191 0L14 520H122L201 283L254 101H260L313 283L394 520H498L319 0H191Z" />
<glyph unicode="w" glyph-name="w" horiz-adv-x="799" d="M26 520H132L185 302L232 105H235L289 302L352 520H450L514 302L569 105H572L618 302L672 520H773L633 0H510L442 237L400 383H398L357 237L288 0H168L26 520Z" />
<glyph unicode="x" glyph-name="x" horiz-adv-x="530" d="M20 0L203 263L25 520H151L268 339H271L391 520H507L329 264L510 0H384L264 189H261L136 0H20Z" />
<glyph unicode="y" glyph-name="y" horiz-adv-x="514" d="M397 520H502L283 -103Q274 -129 263 -147T236 -177T198 -194T146 -200H83V-111H171L201 -23L12 520H121L225 214L255 101H260L293 214L397 520Z" />
<glyph unicode="z" glyph-name="z" horiz-adv-x="487" d="M36 0V88L315 431H45V520H444V436L161 89H451V0H36Z" />
<glyph unicode="{" glyph-name="braceleft" horiz-adv-x="354" d="M204 -138Q164 -138 141 -114T117 -48V176Q117 220 90 242T20 265V358Q62 358 89 380T117 446V670Q117 711 140 735T204 760H298V679H215V444Q215 420 208 399T187 361T155 332T116 316V306Q137
302 155 291T186 262T207 223T215 178V-57H298V-138H204Z" />
<glyph unicode="|" glyph-name="bar" horiz-adv-x="353" d="M130 -138V760H223V-138H130Z" />
<glyph unicode="}" glyph-name="braceright" horiz-adv-x="356" d="M150 760Q190 760 214 736T239 670V446Q239 403 266 381T336 358V265Q294 265 267 243T239 176V-48Q239 -89 215 -113T150 -138H56V-57H141V178Q141 202 148 223T169 261T200 290T240 306V316Q218
320 200 331T169 360T149 399T141 444V679H56V760H150Z" />
<glyph unicode="~" glyph-name="asciitilde" horiz-adv-x="600" d="M418 226Q381 226 353 235T290 262Q262 276 236 286T178 296Q155 296 138 289T97 266L58 327Q77 353 106 369T182 385Q219 385 247 376T310 349Q338 335 364 325T422 315Q445 315 462 322T503
345L542 284Q523 258 494 242T418 226Z" />
<glyph unicode="&#xa0;" glyph-name="uni00A0" horiz-adv-x="236" />
<glyph unicode="&#xa1;" glyph-name="exclamdown" horiz-adv-x="298" d="M91 -178V21L124 320H174L209 21V-178H91ZM149 383Q111 383 94 401T76 449V466Q76 495 93 513T149 532Q187 532 204 514T222 466V449Q222 420 205 402T149 383Z" />
<glyph unicode="&#xa2;" glyph-name="cent" horiz-adv-x="529" d="M235 -114V-8Q144 7 94 77T44 258Q44 370 94 440T235 524V630H322V526Q384 518 424 486T485 406L403 361Q391 390 370 410T317 437V79Q350 85 374 106T414 159L492 111Q470 62 428 30T322 -10V-114H235ZM153
215Q153 165 174 129T240 81V435Q197 423 175 388T153 301V215Z" />
<glyph unicode="&#xa3;" glyph-name="sterling" horiz-adv-x="589" d="M75 0V115Q116 133 134 168T152 246Q152 257 151 267T148 288H49V379H117Q108 408 100 437T92 502Q92 548 108 586T156 652T231 695T331 710Q409 710 463 680T554 593L471 534Q445 572 412
592T331 612Q272 612 240 581T207 487Q207 456 214 431T229 379H437V288H259Q262 271 262 253Q262 198 239 160T186 104V98H537V0H75Z" />
<glyph unicode="&#xa4;" glyph-name="currency" horiz-adv-x="620" d="M310 114Q269 114 235 124T174 152L77 55L15 116L114 215Q82 271 82 349Q82 427 114 483L15 582L77 643L174 546Q200 564 234 574T310 584Q351 584 385 574T446 546L543 643L605 582L506 483Q538
427 538 349Q538 271 506 215L605 116L543 55L446 152Q420 134 386 124T310 114ZM310 198Q364 198 395 228T426 319V379Q426 439 395 469T310 500Q256 500 225 470T194 379V319Q194 259 225 229T310 198Z" />
<glyph unicode="&#xa5;" glyph-name="yen" horiz-adv-x="622" d="M368 140V0H255V140H83V217H255V301H83V378H208L28 698H156L315 400H319L473 698H595L416 378H540V301H368V217H540V140H368Z" />
<glyph unicode="&#xa6;" glyph-name="brokenbar" horiz-adv-x="353" d="M130 404V760H223V404H130ZM130 -138V218H223V-138H130Z" />
<glyph unicode="&#xa7;" glyph-name="section" horiz-adv-x="577" d="M480 8Q480 -31 465 -61T423 -113T357 -146T273 -158Q225 -158 178 -144T93 -95L150 -25Q175 -48 206 -60T275 -73Q324 -73 352 -53T381 4Q381 38 357 57T285 90L216 110Q133 133 99 173T64
261Q64 307 91 343T172 402V413Q138 436 118 469T97 547Q97 585 112 615T154 667T218 699T302 710Q351 710 398 696T484 647L426 578Q401 600 371 613T300 626Q252 626 223 607T194 550Q194 517 218 498T291 465L360 446Q443 422 478 382T513 294Q513 248 486 212T404
153V143Q439 120 459 87T480 8ZM415 263Q415 298 392 322T314 362L246 381Q238 383 230 385T214 391Q189 371 175 347T161 292Q161 257 184 233T262 193L330 175Q345 171 362 164Q387 184 401 208T415 263Z" />
<glyph unicode="&#xa8;" glyph-name="dieresis" horiz-adv-x="600" d="M200 610Q166 610 152 625T138 663V681Q138 704 152 719T200 734Q234 734 248 719T262 681V663Q262 640 248 625T200 610ZM400 610Q366 610 352 625T338 663V681Q338 704 352 719T400 734Q434
734 448 719T462 681V663Q462 640 448 625T400 610Z" />
<glyph unicode="&#xa9;" glyph-name="copyright" horiz-adv-x="782" d="M391 -11Q319 -11 257 14T149 85T77 199T51 349Q51 432 77 499T148 612T256 684T391 709Q463 709 525 684T633 613T705 499T731 349Q731 266 705 199T634 86T526 14T391 -11ZM391 50Q450
50 499 70T584 126T640 211T660 317V381Q660 438 640 487T585 571T500 627T391 648Q332 648 283 628T198 572T142 487T122 381V317Q122 260 142 211T197 127T282 71T391 50ZM399 146Q312 146 264 201T216 349Q216 442 264 497T399 552Q459 552 496 525T552 454L477
415Q466 441 448 456T399 472Q360 472 339 448T318 384V313Q318 274 339 250T399 225Q431 225 451 241T485 284L559 245Q540 203 502 175T399 146Z" />
<glyph unicode="&#xaa;" glyph-name="ordfeminine" horiz-adv-x="420" d="M379 342H334Q307 342 288 355T267 400H263Q252 372 225 354T154 336Q102 336 73 363T43 439Q43 494 82 520T196 546H261V569Q261 642 191 642Q158 642 136 628T102 593L54 634Q70 662
105 683T198 704Q264 704 302 671T341 573V407H379V342ZM196 496Q122 496 122 451V439Q122 416 137 406T179 395Q212 395 236 410T261 454V496H196Z" />
<glyph unicode="&#xab;" glyph-name="guillemotleft" horiz-adv-x="532" d="M226 67L37 230V328L226 491L258 421L129 279L258 137L226 67ZM449 67L260 230V328L449 491L481 421L352 279L481 137L449 67Z" />
<glyph unicode="&#xac;" glyph-name="logicalnot" horiz-adv-x="600" d="M442 78V261H45V350H533V78H442Z" />
<glyph unicode="&#xad;" glyph-name="uni00AD" horiz-adv-x="401" d="M62 249V360H339V249H62Z" />
<glyph unicode="&#xae;" glyph-name="registered" horiz-adv-x="472" d="M236 298Q194 298 158 313T94 357T52 422T36 504Q36 548 51 585T94 651T157 694T236 710Q278 710 314 695T378 651T420 586T436 504Q436 460 421 423T378 357T315 314T236 298ZM236 341Q269
341 297 352T345 384T377 432T389 491V517Q389 548 378 575T346 623T297 655T236 667Q203 667 175 656T127 624T95 576T83 517V491Q83 459 94 432T126 385T175 353T236 341ZM206 398H155V607H250Q285 607 303 589T321 541Q321 516 311 501T283 478L330 398H274L235
470H206V398ZM244 508Q269 508 269 530V545Q269 567 244 567H206V508H244Z" />
<glyph unicode="&#xaf;" glyph-name="overscore" horiz-adv-x="600" d="M154 714H446V631H154V714Z" />
<glyph unicode="&#xb0;" glyph-name="degree" horiz-adv-x="470" d="M235 352Q197 352 165 365T110 403T73 460T59 531Q59 569 72 602T109 659T165 696T235 710Q272 710 304 697T360 659T397 602T411 531Q411 493 398 460T361 403T305 366T235 352ZM235 430Q278
430 302 459T327 531Q327 574 303 603T235 632Q192 632 168 603T143 531Q143 488 167 459T235 430Z" />
<glyph unicode="&#xb1;" glyph-name="plusminus" horiz-adv-x="600" d="M251 167V351H67V440H251V625H349V440H533V351H349V167H251ZM67 0V89H533V0H67Z" />
<glyph unicode="&#xb2;" glyph-name="twosuperior" horiz-adv-x="346" d="M315 329H36V399L157 495Q190 521 205 541T221 586V590Q221 614 206 626T165 638Q135 638 120 623T97 585L28 611Q42 649 76 676T172 704Q236 704 271 673T306 593Q306 570 298 550T276
513T243 481T203 450L122 393H315V329Z" />
<glyph unicode="&#xb3;" glyph-name="threesuperior" horiz-adv-x="345" d="M153 551Q186 551 202 563T218 592V596Q218 616 203 629T161 642Q135 642 115 630T79 597L28 642Q49 670 81 687T164 704Q227 704 264 678T302 606Q302 571 280 550T225 523V520Q260
514 284 492T308 432Q308 382 268 353T159 323Q100 323 67 344T15 393L74 437Q88 414 107 400T159 385Q191 385 208 399T225 437V442Q225 465 206 476T154 487H115V551H153Z" />
<glyph unicode="&#xb4;" glyph-name="acute" horiz-adv-x="600" d="M311 582L243 615L334 795L429 749L311 582Z" />
<glyph unicode="&#xb5;" glyph-name="mu" horiz-adv-x="585" d="M78 -200V520H187V203Q187 82 287 82Q308 82 328 87T363 104T388 132T398 172V520H507V0H398V86H394Q387 67 376 49T349 18T312 -4T263 -12Q198 -12 175 36H171L187 -71V-200H78Z" />
<glyph unicode="&#xb6;" glyph-name="paragraph" horiz-adv-x="663" d="M244 282Q202 282 166 298T102 343T59 409T43 490Q43 533 58 570T101 636T165 681T244 698H593V614H527V-149H438V614H333V-149H244V282Z" />
<glyph unicode="&#xb7;" glyph-name="middot" horiz-adv-x="356" d="M178 224Q136 224 117 243T98 292V316Q98 345 117 364T178 384Q220 384 239 365T258 316V292Q258 263 239 244T178 224Z" />
<glyph unicode="&#xb8;" glyph-name="cedilla" horiz-adv-x="600" d="M313 -209Q267 -209 241 -195T203 -167L245 -119Q254 -131 269 -139T308 -148Q327 -148 339 -141T352 -119Q352 -107 338 -96T281 -79L256 -76L276 24H333L316 -58L320 -62Q331 -59 341 -57T363
-55Q392 -55 412 -71T433 -123Q433 -146 423 -162T397 -188T359 -204T313 -209Z" />
<glyph unicode="&#xb9;" glyph-name="onesuperior" horiz-adv-x="353" d="M53 329V391H155V635H149L72 548L22 590L117 698H234V391H325V329H53Z" />
<glyph unicode="&#xba;" glyph-name="ordmasculine" horiz-adv-x="414" d="M207 336Q129 336 86 385T42 520Q42 606 85 655T207 704Q285 704 328 655T372 520Q372 434 329 385T207 336ZM207 399Q246 399 267 422T288 488V552Q288 595 267 618T207 641Q168 641
147 618T126 552V488Q126 445 147 422T207 399Z" />
<glyph unicode="&#xbb;" glyph-name="guillemotright" horiz-adv-x="532" d="M51 137L180 279L51 421L83 491L272 328V230L83 67L51 137ZM274 137L403 279L274 421L306 491L495 328V230L306 67L274 137Z" />
<glyph unicode="&#xbc;" glyph-name="onequarter" horiz-adv-x="847" d="M53 329V391H155V635H149L72 548L22 590L117 698H234V391H325V329H53ZM147 0L652 698H740L236 0H147ZM699 0V71H520V137L677 369H775V131H827V71H775V0H699ZM699 289H694L585 131H699V289Z" />
<glyph unicode="&#xbd;" glyph-name="onehalf" horiz-adv-x="850" d="M53 329V391H155V635H149L72 548L22 590L117 698H234V391H325V329H53ZM132 0L637 698H725L221 0H132ZM819 0H540V70L661 166Q694 192 709 212T725 257V261Q725 285 710 297T669 309Q639 309
624 294T601 256L532 282Q546 320 580 347T676 375Q740 375 775 344T810 264Q810 241 802 221T780 184T747 152T707 121L626 64H819V0Z" />
<glyph unicode="&#xbe;" glyph-name="threequarters" horiz-adv-x="829" d="M153 551Q186 551 202 563T218 592V596Q218 616 203 629T161 642Q135 642 115 630T79 597L28 642Q49 670 81 687T164 704Q227 704 264 678T302 606Q302 571 280 550T225 523V520Q260
514 284 492T308 432Q308 382 268 353T159 323Q100 323 67 344T15 393L74 437Q88 414 107 400T159 385Q191 385 208 399T225 437V442Q225 465 206 476T154 487H115V551H153ZM129 0L634 698H722L218 0H129ZM681 0V71H502V137L659 369H757V131H809V71H757V0H681ZM681
289H676L567 131H681V289Z" />
<glyph unicode="&#xbf;" glyph-name="questiondown" horiz-adv-x="479" d="M248 -190Q199 -190 159 -176T91 -137T48 -75T33 6Q33 51 48 86T89 147T147 187T213 209V301H317V142Q236 138 193 108T149 17V3Q149 -43 177 -68T252 -94Q302 -94 332 -65T373 9L468
-29Q459 -60 442 -89T397 -140T333 -176T248 -190ZM264 383Q226 383 209 401T191 449V466Q191 495 208 513T264 532Q302 532 319 514T337 466V449Q337 420 320 402T264 383Z" />
<glyph unicode="&#xc0;" glyph-name="Agrave" horiz-adv-x="662" d="M522 0L459 189H198L137 0H22L260 698H402L640 0H522ZM331 594H326L225 286H431L331 594ZM201 915L296 961L387 781L319 749L201 915Z" />
<glyph unicode="&#xc1;" glyph-name="Aacute" horiz-adv-x="662" d="M522 0L459 189H198L137 0H22L260 698H402L640 0H522ZM331 594H326L225 286H431L331 594ZM341 749L273 781L364 961L459 915L341 749Z" />
<glyph unicode="&#xc2;" glyph-name="Acircumflex" horiz-adv-x="662" d="M522 0L459 189H198L137 0H22L260 698H402L640 0H522ZM331 594H326L225 286H431L331 594ZM385 944L505 794L449 752L330 868L211 752L155 794L275 944H385Z" />
<glyph unicode="&#xc3;" glyph-name="Atilde" horiz-adv-x="662" d="M522 0L459 189H198L137 0H22L260 698H402L640 0H522ZM331 594H326L225 286H431L331 594ZM404 773Q379 773 361 781T326 797Q303 808 286 814T252 820Q235 820 222 814T194 794L153 846Q168
869 193 886T256 904Q281 904 299 896T334 880Q357 869 374 863T408 857Q425 857 438 863T466 883L507 831Q492 808 467 791T404 773Z" />
<glyph unicode="&#xc4;" glyph-name="Adieresis" horiz-adv-x="662" d="M522 0L459 189H198L137 0H22L260 698H402L640 0H522ZM331 594H326L225 286H431L331 594ZM230 776Q196 776 182 791T167 830V848Q167 871 181 886T230 902Q264 902 278 887T293 848V830Q293
807 279 792T230 776ZM430 776Q396 776 382 791T367 830V848Q367 871 381 886T430 902Q464 902 478 887T493 848V830Q493 807 479 792T430 776Z" />
<glyph unicode="&#xc5;" glyph-name="Aring" horiz-adv-x="662" d="M522 0L459 189H198L137 0H22L260 698H402L640 0H522ZM331 594H326L225 286H431L331 594ZM330 734Q303 734 279 743T238 770T210 810T200 861Q200 888 210 911T237 952T279 978T330 988Q357 988
381 979T422 952T450 912T460 861Q460 834 450 811T423 770T381 744T330 734ZM330 795Q356 795 370 809T385 848V875Q385 900 371 914T330 928Q304 928 290 914T275 875V848Q275 823 289 809T330 795Z" />
<glyph unicode="&#xc6;" glyph-name="AE" horiz-adv-x="933" d="M426 188H208L116 0H2L352 698H873V598H539V404H842V304H539V100H873V0H426V188ZM409 598L254 286H426V598H409Z" />
<glyph unicode="&#xc7;" glyph-name="Ccedilla" horiz-adv-x="634" d="M348 609Q267 609 221 554T175 402V296Q175 199 221 144T348 89Q411 89 450 121T509 205L600 150Q566 77 507 35T362 -12L353 -58L356 -62Q367 -59 377 -57T399 -55Q428 -55 448 -71T469 -123Q469
-146 459 -162T433 -188T395 -204T349 -209Q304 -209 278 -195T239 -167L281 -119Q290 -131 305 -139T344 -148Q363 -148 375 -141T388 -119Q388 -107 375 -96T317 -79L292 -76L305 -9Q187 5 121 96T55 349Q55 437 75 504T133 617T225 686T348 710Q439 710 500
670T597 552L502 500Q484 550 447 579T348 609Z" />
<glyph unicode="&#xc8;" glyph-name="Egrave" horiz-adv-x="593" d="M86 0V698H533V598H199V404H502V304H199V100H533V0H86ZM180 915L275 961L366 781L298 749L180 915Z" />
<glyph unicode="&#xc9;" glyph-name="Eacute" horiz-adv-x="593" d="M86 0V698H533V598H199V404H502V304H199V100H533V0H86ZM320 749L252 781L343 961L438 915L320 749Z" />
<glyph unicode="&#xca;" glyph-name="Ecircumflex" horiz-adv-x="593" d="M86 0V698H533V598H199V404H502V304H199V100H533V0H86ZM364 944L484 794L428 752L309 868L190 752L134 794L254 944H364Z" />
<glyph unicode="&#xcb;" glyph-name="Edieresis" horiz-adv-x="593" d="M86 0V698H533V598H199V404H502V304H199V100H533V0H86ZM209 776Q175 776 161 791T146 830V848Q146 871 160 886T209 902Q243 902 257 887T272 848V830Q272 807 258 792T209 776ZM409 776Q375
776 361 791T346 830V848Q346 871 360 886T409 902Q443 902 457 887T472 848V830Q472 807 458 792T409 776Z" />
<glyph unicode="&#xcc;" glyph-name="Igrave" horiz-adv-x="416" d="M56 0V92H151V606H56V698H360V606H264V92H360V0H56ZM335 915L430 961L521 781L453 749L335 915Z" />
<glyph unicode="&#xcd;" glyph-name="Iacute" horiz-adv-x="416" d="M56 0V92H151V606H56V698H360V606H264V92H360V0H56ZM475 749L407 781L498 961L593 915L475 749Z" />
<glyph unicode="&#xce;" glyph-name="Icircumflex" horiz-adv-x="416" d="M56 0V92H151V606H56V698H360V606H264V92H360V0H56ZM519 944L639 794L583 752L464 868L345 752L289 794L409 944H519Z" />
<glyph unicode="&#xcf;" glyph-name="Idieresis" horiz-adv-x="416" d="M56 0V92H151V606H56V698H360V606H264V92H360V0H56ZM364 776Q330 776 316 791T301 830V848Q301 871 315 886T364 902Q398 902 412 887T427 848V830Q427 807 413 792T364 776ZM564 776Q530
776 516 791T501 830V848Q501 871 515 886T564 902Q598 902 612 887T627 848V830Q627 807 613 792T564 776Z" />
<glyph unicode="&#xd0;" glyph-name="Eth" horiz-adv-x="687" d="M90 320H13V406H90V698H337Q404 698 458 676T551 611T611 502T632 349Q632 262 611 197T552 88T459 22T337 0H90V320ZM337 100Q415 100 463 149T511 293V405Q511 500 463 549T337 598H203V406H333V320H203V100H337Z"
/>
<glyph unicode="&#xd1;" glyph-name="Ntilde" horiz-adv-x="714" d="M274 386L197 534H194V0H86V698H212L440 312L517 164H520V698H628V0H502L274 386ZM431 773Q406 773 388 781T353 797Q330 808 313 814T279 820Q262 820 249 814T221 794L180 846Q195 869 220
886T283 904Q308 904 326 896T361 880Q384 869 401 863T435 857Q452 857 465 863T493 883L534 831Q519 808 494 791T431 773Z" />
<glyph unicode="&#xd2;" glyph-name="Ograve" horiz-adv-x="712" d="M356 -12Q288 -12 233 11T138 80T77 193T55 349Q55 437 76 504T137 617T232 686T356 710Q424 710 479 687T574 618T635 505T657 349Q657 261 636 194T575 81T480 12T356 -12ZM356 89Q396 89
429 103T486 143T523 208T536 294V404Q536 452 523 490T487 554T430 595T356 609Q315 609 282 595T226 555T189 490T176 404V294Q176 246 189 208T225 144T282 103T356 89ZM227 915L322 961L413 781L345 749L227 915Z" />
<glyph unicode="&#xd3;" glyph-name="Oacute" horiz-adv-x="712" d="M356 -12Q288 -12 233 11T138 80T77 193T55 349Q55 437 76 504T137 617T232 686T356 710Q424 710 479 687T574 618T635 505T657 349Q657 261 636 194T575 81T480 12T356 -12ZM356 89Q396 89
429 103T486 143T523 208T536 294V404Q536 452 523 490T487 554T430 595T356 609Q315 609 282 595T226 555T189 490T176 404V294Q176 246 189 208T225 144T282 103T356 89ZM367 749L299 781L390 961L485 915L367 749Z" />
<glyph unicode="&#xd4;" glyph-name="Ocircumflex" horiz-adv-x="712" d="M356 -12Q288 -12 233 11T138 80T77 193T55 349Q55 437 76 504T137 617T232 686T356 710Q424 710 479 687T574 618T635 505T657 349Q657 261 636 194T575 81T480 12T356 -12ZM356 89Q396
89 429 103T486 143T523 208T536 294V404Q536 452 523 490T487 554T430 595T356 609Q315 609 282 595T226 555T189 490T176 404V294Q176 246 189 208T225 144T282 103T356 89ZM411 944L531 794L475 752L356 868L237 752L181 794L301 944H411Z" />
<glyph unicode="&#xd5;" glyph-name="Otilde" horiz-adv-x="712" d="M356 -12Q288 -12 233 11T138 80T77 193T55 349Q55 437 76 504T137 617T232 686T356 710Q424 710 479 687T574 618T635 505T657 349Q657 261 636 194T575 81T480 12T356 -12ZM356 89Q396 89
429 103T486 143T523 208T536 294V404Q536 452 523 490T487 554T430 595T356 609Q315 609 282 595T226 555T189 490T176 404V294Q176 246 189 208T225 144T282 103T356 89ZM430 773Q405 773 387 781T352 797Q329 808 312 814T278 820Q261 820 248 814T220 794L179
846Q194 869 219 886T282 904Q307 904 325 896T360 880Q383 869 400 863T434 857Q451 857 464 863T492 883L533 831Q518 808 493 791T430 773Z" />
<glyph unicode="&#xd6;" glyph-name="Odieresis" horiz-adv-x="712" d="M356 -12Q288 -12 233 11T138 80T77 193T55 349Q55 437 76 504T137 617T232 686T356 710Q424 710 479 687T574 618T635 505T657 349Q657 261 636 194T575 81T480 12T356 -12ZM356 89Q396
89 429 103T486 143T523 208T536 294V404Q536 452 523 490T487 554T430 595T356 609Q315 609 282 595T226 555T189 490T176 404V294Q176 246 189 208T225 144T282 103T356 89ZM256 776Q222 776 208 791T193 830V848Q193 871 207 886T256 902Q290 902 304 887T319
848V830Q319 807 305 792T256 776ZM456 776Q422 776 408 791T393 830V848Q393 871 407 886T456 902Q490 902 504 887T519 848V830Q519 807 505 792T456 776Z" />
<glyph unicode="&#xd7;" glyph-name="multiply" horiz-adv-x="600" d="M300 238L150 83L86 146L237 302L86 458L150 521L300 366L450 521L514 458L363 302L514 146L450 83L300 238Z" />
<glyph unicode="&#xd8;" glyph-name="Oslash" horiz-adv-x="712" d="M356 -12Q261 -12 193 32L136 -50L64 -3L129 91Q94 136 75 200T55 349Q55 437 76 504T137 617T232 686T356 710Q451 710 519 666L576 748L648 701L583 607Q618 562 637 498T657 349Q657 261
636 194T575 81T480 12T356 -12ZM173 292Q173 229 196 181L464 580Q419 614 356 614Q315 614 281 600T223 558T186 493T173 406V292ZM539 406Q539 469 516 517L248 118Q293 84 356 84Q397 84 431 98T489 140T526 205T539 292V406Z" />
<glyph unicode="&#xd9;" glyph-name="Ugrave" horiz-adv-x="686" d="M193 698V268Q193 179 227 134T343 89Q425 89 459 134T493 268V698H604V286Q604 209 590 153T545 61T465 6T343 -12Q271 -12 222 6T141 60T96 153T82 286V698H193ZM214 915L309 961L400 781L332
749L214 915Z" />
<glyph unicode="&#xda;" glyph-name="Uacute" horiz-adv-x="686" d="M193 698V268Q193 179 227 134T343 89Q425 89 459 134T493 268V698H604V286Q604 209 590 153T545 61T465 6T343 -12Q271 -12 222 6T141 60T96 153T82 286V698H193ZM354 749L286 781L377 961L472
915L354 749Z" />
<glyph unicode="&#xdb;" glyph-name="Ucircumflex" horiz-adv-x="686" d="M193 698V268Q193 179 227 134T343 89Q425 89 459 134T493 268V698H604V286Q604 209 590 153T545 61T465 6T343 -12Q271 -12 222 6T141 60T96 153T82 286V698H193ZM398 944L518 794L462
752L343 868L224 752L168 794L288 944H398Z" />
<glyph unicode="&#xdc;" glyph-name="Udieresis" horiz-adv-x="686" d="M193 698V268Q193 179 227 134T343 89Q425 89 459 134T493 268V698H604V286Q604 209 590 153T545 61T465 6T343 -12Q271 -12 222 6T141 60T96 153T82 286V698H193ZM243 776Q209 776 195 791T180
830V848Q180 871 194 886T243 902Q277 902 291 887T306 848V830Q306 807 292 792T243 776ZM443 776Q409 776 395 791T380 830V848Q380 871 394 886T443 902Q477 902 491 887T506 848V830Q506 807 492 792T443 776Z" />
<glyph unicode="&#xdd;" glyph-name="Yacute" horiz-adv-x="617" d="M251 0V275L11 698H140L310 387H313L482 698H606L364 277V0H251ZM320 749L252 781L343 961L438 915L320 749Z" />
<glyph unicode="&#xde;" glyph-name="Thorn" horiz-adv-x="627" d="M86 0V698H199V564H386Q434 564 471 549T535 507T575 440T589 354Q589 307 576 268T536 202T472 159T386 144H199V0H86ZM199 243H379Q422 243 446 265T470 330V378Q470 420 446 442T379 465H199V243Z" />
<glyph unicode="&#xdf;" glyph-name="germandbls" horiz-adv-x="662" d="M636 159Q636 119 623 88T585 34T527 0T450 -12Q388 -12 344 8T269 68L335 132Q383 74 452 74Q490 74 512 92T534 146Q534 175 519 192T466 220L435 228Q406 236 382 247T341 276T313 317T303
375Q303 440 346 478T465 525V529Q465 666 339 666Q214 666 214 529V0H105V431H26V520H105V524Q105 630 167 691T338 752Q391 752 433 736T506 691T552 620T568 525V449H517Q461 449 433 434T405 383Q405 351 423 337T477 313L507 304Q573 287 604 253T636 159Z"
/>
<glyph unicode="&#xe0;" glyph-name="agrave" horiz-adv-x="549" d="M459 0Q416 0 393 24T365 87H360Q345 38 305 13T208 -12Q127 -12 84 30T40 143Q40 221 96 260T262 299H356V343Q356 391 330 417T249 443Q203 443 174 423T125 372L60 431Q86 475 133 503T256
532Q357 532 411 485T465 350V89H520V0H459ZM239 71Q290 71 323 93T356 154V229H264Q151 229 151 159V141Q151 106 174 89T239 71ZM387 749L482 795L573 615L505 582L387 749Z" />
<glyph unicode="&#xe1;" glyph-name="aacute" horiz-adv-x="549" d="M459 0Q416 0 393 24T365 87H360Q345 38 305 13T208 -12Q127 -12 84 30T40 143Q40 221 96 260T262 299H356V343Q356 391 330 417T249 443Q203 443 174 423T125 372L60 431Q86 475 133 503T256
532Q357 532 411 485T465 350V89H520V0H459ZM239 71Q290 71 323 93T356 154V229H264Q151 229 151 159V141Q151 106 174 89T239 71ZM527 582L459 615L550 795L645 749L527 582Z" />
<glyph unicode="&#xe2;" glyph-name="acircumflex" horiz-adv-x="549" d="M459 0Q416 0 393 24T365 87H360Q345 38 305 13T208 -12Q127 -12 84 30T40 143Q40 221 96 260T262 299H356V343Q356 391 330 417T249 443Q203 443 174 423T125 372L60 431Q86 475 133 503T256
532Q357 532 411 485T465 350V89H520V0H459ZM239 71Q290 71 323 93T356 154V229H264Q151 229 151 159V141Q151 106 174 89T239 71ZM571 778L691 628L635 585L516 702L397 585L341 628L461 778H571Z" />
<glyph unicode="&#xe3;" glyph-name="atilde" horiz-adv-x="549" d="M459 0Q416 0 393 24T365 87H360Q345 38 305 13T208 -12Q127 -12 84 30T40 143Q40 221 96 260T262 299H356V343Q356 391 330 417T249 443Q203 443 174 423T125 372L60 431Q86 475 133 503T256
532Q357 532 411 485T465 350V89H520V0H459ZM239 71Q290 71 323 93T356 154V229H264Q151 229 151 159V141Q151 106 174 89T239 71ZM590 607Q565 607 547 615T512 631Q489 642 472 648T438 655Q421 655 408 648T380 628L339 680Q354 703 379 720T442 738Q467 738
485 730T520 714Q543 703 560 697T594 690Q611 690 624 697T652 717L693 665Q678 642 653 625T590 607Z" />
<glyph unicode="&#xe4;" glyph-name="adieresis" horiz-adv-x="549" d="M459 0Q416 0 393 24T365 87H360Q345 38 305 13T208 -12Q127 -12 84 30T40 143Q40 221 96 260T262 299H356V343Q356 391 330 417T249 443Q203 443 174 423T125 372L60 431Q86 475 133 503T256
532Q357 532 411 485T465 350V89H520V0H459ZM239 71Q290 71 323 93T356 154V229H264Q151 229 151 159V141Q151 106 174 89T239 71ZM416 610Q382 610 368 625T354 663V681Q354 704 368 719T416 734Q450 734 464 719T478 681V663Q478 640 464 625T416 610ZM616 610Q582
610 568 625T554 663V681Q554 704 568 719T616 734Q650 734 664 719T678 681V663Q678 640 664 625T616 610Z" />
<glyph unicode="&#xe5;" glyph-name="aring" horiz-adv-x="549" d="M459 0Q416 0 393 24T365 87H360Q345 38 305 13T208 -12Q127 -12 84 30T40 143Q40 221 96 260T262 299H356V343Q356 391 330 417T249 443Q203 443 174 423T125 372L60 431Q86 475 133 503T256
532Q357 532 411 485T465 350V89H520V0H459ZM239 71Q290 71 323 93T356 154V229H264Q151 229 151 159V141Q151 106 174 89T239 71ZM516 568Q489 568 465 577T424 604T396 644T386 695Q386 722 396 745T423 786T465 812T516 822Q543 822 567 813T608 786T636 746T646
695Q646 668 636 645T609 604T567 578T516 568ZM516 628Q571 628 571 681V709Q571 762 516 762Q461 762 461 709V681Q461 628 516 628Z" />
<glyph unicode="&#xe6;" glyph-name="ae" horiz-adv-x="865" d="M264 232Q151 230 151 161V143Q151 108 174 90T241 71Q289 71 322 93T356 154V232H264ZM707 304V314Q707 374 676 410T591 447Q563 447 540 437T500 409T474 366T465 311V304H707ZM604 78Q652 78
685 99T740 155L804 93Q775 45 722 17T599 -12Q560 -12 527 -2T468 24T426 59T402 98H396Q391 80 377 61T339 25T283 -1T208 -12Q129 -12 85 31T40 143Q40 222 98 263T262 304H356V343Q356 391 330 417T250 443Q202 443 174 424T125 373L60 431Q86 475 133 503T256
532Q292 532 318 523T362 500T392 469T412 434H418Q426 452 442 469T480 501T532 523T597 532Q653 532 695 512T765 457T808 374T822 273V232H465V215Q465 155 501 117T604 78Z" />
<glyph unicode="&#xe7;" glyph-name="ccedilla" horiz-adv-x="510" d="M279 532Q357 532 407 497T480 404L390 362Q379 398 352 419T279 441Q219 441 189 404T158 306V213Q158 153 188 116T279 78Q327 78 355 101T401 164L484 120Q460 60 413 27T296 -12L287 -58L290
-62Q301 -59 311 -57T333 -55Q362 -55 382 -71T403 -123Q403 -146 393 -162T367 -188T329 -204T283 -209Q238 -209 212 -195T173 -167L215 -119Q224 -131 239 -139T278 -148Q297 -148 309 -141T322 -119Q322 -107 308 -96T251 -79L226 -76L239 -9Q145 4 94 75T43
260Q43 322 59 372T105 458T179 513T279 532Z" />
<glyph unicode="&#xe8;" glyph-name="egrave" horiz-adv-x="556" d="M282 -12Q226 -12 182 7T107 61T60 147T43 260Q43 322 59 372T107 458T182 513T282 532Q339 532 382 512T455 457T498 374T513 273V232H156V215Q156 155 191 117T293 78Q341 78 374 99T430 156L494
93Q465 45 410 17T282 -12ZM282 447Q254 447 231 437T191 409T165 366T156 311V304H398V314Q398 374 367 410T282 447ZM411 749L506 795L597 615L529 582L411 749Z" />
<glyph unicode="&#xe9;" glyph-name="eacute" horiz-adv-x="556" d="M282 -12Q226 -12 182 7T107 61T60 147T43 260Q43 322 59 372T107 458T182 513T282 532Q339 532 382 512T455 457T498 374T513 273V232H156V215Q156 155 191 117T293 78Q341 78 374 99T430 156L494
93Q465 45 410 17T282 -12ZM282 447Q254 447 231 437T191 409T165 366T156 311V304H398V314Q398 374 367 410T282 447ZM551 582L483 615L574 795L669 749L551 582Z" />
<glyph unicode="&#xea;" glyph-name="ecircumflex" horiz-adv-x="556" d="M282 -12Q226 -12 182 7T107 61T60 147T43 260Q43 322 59 372T107 458T182 513T282 532Q339 532 382 512T455 457T498 374T513 273V232H156V215Q156 155 191 117T293 78Q341 78 374 99T430
156L494 93Q465 45 410 17T282 -12ZM282 447Q254 447 231 437T191 409T165 366T156 311V304H398V314Q398 374 367 410T282 447ZM595 778L715 628L659 585L540 702L421 585L365 628L485 778H595Z" />
<glyph unicode="&#xeb;" glyph-name="edieresis" horiz-adv-x="556" d="M282 -12Q226 -12 182 7T107 61T60 147T43 260Q43 322 59 372T107 458T182 513T282 532Q339 532 382 512T455 457T498 374T513 273V232H156V215Q156 155 191 117T293 78Q341 78 374 99T430
156L494 93Q465 45 410 17T282 -12ZM282 447Q254 447 231 437T191 409T165 366T156 311V304H398V314Q398 374 367 410T282 447ZM440 610Q406 610 392 625T378 663V681Q378 704 392 719T440 734Q474 734 488 719T502 681V663Q502 640 488 625T440 610ZM640 610Q606
610 592 625T578 663V681Q578 704 592 719T640 734Q674 734 688 719T702 681V663Q702 640 688 625T640 610Z" />
<glyph unicode="&#xec;" glyph-name="igrave" horiz-adv-x="265" d="M78 0V520H187V0H78ZM5 749L100 795L191 615L123 582L5 749Z" />
<glyph unicode="&#xed;" glyph-name="iacute" horiz-adv-x="265" d="M78 0V520H187V0H78ZM145 582L77 615L168 795L263 749L145 582Z" />
<glyph unicode="&#xee;" glyph-name="icircumflex" horiz-adv-x="265" d="M78 0V520H187V0H78ZM189 778L309 628L253 585L134 702L15 585L-41 628L79 778H189Z" />
<glyph unicode="&#xef;" glyph-name="idieresis" horiz-adv-x="265" d="M78 0V520H187V0H78ZM34 610Q0 610 -14 625T-28 663V681Q-28 704 -14 719T34 734Q68 734 82 719T96 681V663Q96 640 82 625T34 610ZM234 610Q200 610 186 625T172 663V681Q172 704 186 719T234
734Q268 734 282 719T296 681V663Q296 640 282 625T234 610Z" />
<glyph unicode="&#xf0;" glyph-name="eth" horiz-adv-x="574" d="M443 704L367 653Q400 619 429 579T479 491T513 389T525 274Q525 201 508 148T459 59T383 6T286 -12Q229 -12 185 6T109 59T61 142T44 249Q44 306 59 352T102 432T170 483T259 502Q311 502 346
476T400 404L406 407Q394 460 362 508T285 600L201 546L162 595L236 644Q202 671 166 695T93 740H260Q274 731 289 721T319 697L403 753L443 704ZM285 75Q342 75 376 111T411 214V276Q411 342 377 378T285 415Q228 415 194 379T159 276V214Q159 148 193 112T285
75Z" />
<glyph unicode="&#xf1;" glyph-name="ntilde" horiz-adv-x="580" d="M78 0V520H187V434H192Q209 476 243 504T338 532Q418 532 462 480T507 330V0H398V316Q398 438 300 438Q279 438 259 433T222 416T197 388T187 348V0H78ZM624 607Q599 607 581 615T546 631Q523
642 506 648T472 655Q455 655 442 648T414 628L373 680Q388 703 413 720T476 738Q501 738 519 730T554 714Q577 703 594 697T628 690Q645 690 658 697T686 717L727 665Q712 642 687 625T624 607Z" />
<glyph unicode="&#xf2;" glyph-name="ograve" horiz-adv-x="564" d="M282 -12Q228 -12 184 7T108 61T60 147T43 260Q43 322 60 372T108 458T183 513T282 532Q336 532 380 513T456 459T504 373T521 260Q521 198 504 148T456 62T381 7T282 -12ZM282 78Q338 78 372
112T406 216V304Q406 373 372 407T282 442Q226 442 192 408T158 304V216Q158 147 192 113T282 78ZM409 749L504 795L595 615L527 582L409 749Z" />
<glyph unicode="&#xf3;" glyph-name="oacute" horiz-adv-x="564" d="M282 -12Q228 -12 184 7T108 61T60 147T43 260Q43 322 60 372T108 458T183 513T282 532Q336 532 380 513T456 459T504 373T521 260Q521 198 504 148T456 62T381 7T282 -12ZM282 78Q338 78 372
112T406 216V304Q406 373 372 407T282 442Q226 442 192 408T158 304V216Q158 147 192 113T282 78ZM549 582L481 615L572 795L667 749L549 582Z" />
<glyph unicode="&#xf4;" glyph-name="ocircumflex" horiz-adv-x="564" d="M282 -12Q228 -12 184 7T108 61T60 147T43 260Q43 322 60 372T108 458T183 513T282 532Q336 532 380 513T456 459T504 373T521 260Q521 198 504 148T456 62T381 7T282 -12ZM282 78Q338
78 372 112T406 216V304Q406 373 372 407T282 442Q226 442 192 408T158 304V216Q158 147 192 113T282 78ZM593 778L713 628L657 585L538 702L419 585L363 628L483 778H593Z" />
<glyph unicode="&#xf5;" glyph-name="otilde" horiz-adv-x="564" d="M282 -12Q228 -12 184 7T108 61T60 147T43 260Q43 322 60 372T108 458T183 513T282 532Q336 532 380 513T456 459T504 373T521 260Q521 198 504 148T456 62T381 7T282 -12ZM282 78Q338 78 372
112T406 216V304Q406 373 372 407T282 442Q226 442 192 408T158 304V216Q158 147 192 113T282 78ZM612 607Q587 607 569 615T534 631Q511 642 494 648T460 655Q443 655 430 648T402 628L361 680Q376 703 401 720T464 738Q489 738 507 730T542 714Q565 703 582 697T616
690Q633 690 646 697T674 717L715 665Q700 642 675 625T612 607Z" />
<glyph unicode="&#xf6;" glyph-name="odieresis" horiz-adv-x="564" d="M282 -12Q228 -12 184 7T108 61T60 147T43 260Q43 322 60 372T108 458T183 513T282 532Q336 532 380 513T456 459T504 373T521 260Q521 198 504 148T456 62T381 7T282 -12ZM282 78Q338 78
372 112T406 216V304Q406 373 372 407T282 442Q226 442 192 408T158 304V216Q158 147 192 113T282 78ZM438 610Q404 610 390 625T376 663V681Q376 704 390 719T438 734Q472 734 486 719T500 681V663Q500 640 486 625T438 610ZM638 610Q604 610 590 625T576 663V681Q576
704 590 719T638 734Q672 734 686 719T700 681V663Q700 640 686 625T638 610Z" />
<glyph unicode="&#xf7;" glyph-name="divide" horiz-adv-x="600" d="M67 261V350H533V261H67ZM300 42Q260 42 244 59T227 99V122Q227 145 243 162T300 179Q340 179 356 162T373 122V99Q373 76 357 59T300 42ZM300 431Q260 431 244 448T227 488V511Q227 534 243
551T300 568Q340 568 356 551T373 511V488Q373 465 357 448T300 431Z" />
<glyph unicode="&#xf8;" glyph-name="oslash" horiz-adv-x="570" d="M26 1L93 84Q70 119 58 162T46 260Q46 322 63 372T111 458T186 513T285 532Q364 532 423 490L484 564L544 519L476 435Q499 401 511 357T524 260Q524 198 507 148T459 62T384 7T285 -12Q244
-12 210 -2T147 29L86 -44L26 1ZM285 75Q342 75 376 111T411 218V302Q411 329 405 352L202 103Q233 75 285 75ZM159 218Q159 190 165 168L368 416Q334 445 285 445Q228 445 194 409T159 302V218Z" />
<glyph unicode="&#xf9;" glyph-name="ugrave" horiz-adv-x="580" d="M393 86H389Q382 67 371 49T342 18T300 -4T243 -12Q162 -12 118 40T73 189V520H182V203Q182 82 282 82Q303 82 323 87T358 104T383 132T393 172V520H502V0H393V86ZM416 749L511 795L602 615L534
582L416 749Z" />
<glyph unicode="&#xfa;" glyph-name="uacute" horiz-adv-x="580" d="M393 86H389Q382 67 371 49T342 18T300 -4T243 -12Q162 -12 118 40T73 189V520H182V203Q182 82 282 82Q303 82 323 87T358 104T383 132T393 172V520H502V0H393V86ZM556 582L488 615L579 795L674
749L556 582Z" />
<glyph unicode="&#xfb;" glyph-name="ucircumflex" horiz-adv-x="580" d="M393 86H389Q382 67 371 49T342 18T300 -4T243 -12Q162 -12 118 40T73 189V520H182V203Q182 82 282 82Q303 82 323 87T358 104T383 132T393 172V520H502V0H393V86ZM600 778L720 628L664
585L545 702L426 585L370 628L490 778H600Z" />
<glyph unicode="&#xfc;" glyph-name="udieresis" horiz-adv-x="580" d="M393 86H389Q382 67 371 49T342 18T300 -4T243 -12Q162 -12 118 40T73 189V520H182V203Q182 82 282 82Q303 82 323 87T358 104T383 132T393 172V520H502V0H393V86ZM445 610Q411 610 397 625T383
663V681Q383 704 397 719T445 734Q479 734 493 719T507 681V663Q507 640 493 625T445 610ZM645 610Q611 610 597 625T583 663V681Q583 704 597 719T645 734Q679 734 693 719T707 681V663Q707 640 693 625T645 610Z" />
<glyph unicode="&#xfd;" glyph-name="yacute" horiz-adv-x="514" d="M397 520H502L283 -103Q274 -129 263 -147T236 -177T198 -194T146 -200H83V-111H171L201 -23L12 520H121L225 214L255 101H260L293 214L397 520ZM527 582L459 615L550 795L645 749L527 582Z" />
<glyph unicode="&#xfe;" glyph-name="thorn" horiz-adv-x="592" d="M78 740H187V434H192Q209 481 247 506T338 532Q437 532 491 461T545 260Q545 131 491 60T338 -12Q286 -12 248 14T192 86H187V-200H78V740ZM305 82Q362 82 396 118T430 215V305Q430 365 396 401T305
438Q255 438 221 414T187 349V171Q187 131 221 107T305 82Z" />
<glyph unicode="&#xff;" glyph-name="ydieresis" horiz-adv-x="514" d="M397 520H502L283 -103Q274 -129 263 -147T236 -177T198 -194T146 -200H83V-111H171L201 -23L12 520H121L225 214L255 101H260L293 214L397 520ZM416 610Q382 610 368 625T354 663V681Q354
704 368 719T416 734Q450 734 464 719T478 681V663Q478 640 464 625T416 610ZM616 610Q582 610 568 625T554 663V681Q554 704 568 719T616 734Q650 734 664 719T678 681V663Q678 640 664 625T616 610Z" />
<glyph unicode="&#x2013;" glyph-name="endash" horiz-adv-x="588" d="M36 257V351H552V257H36Z" />
<glyph unicode="&#x2014;" glyph-name="emdash" horiz-adv-x="780" d="M36 257V351H744V257H36Z" />
<glyph unicode="&#x2018;" glyph-name="quoteleft" horiz-adv-x="284" d="M139 469Q102 469 85 487T67 533V550Q67 574 74 600T95 651T126 699T166 740H243Q212 709 192 680T161 614Q187 609 199 592T211 551V533Q211 505 194 487T139 469Z" />
<glyph unicode="&#x2019;" glyph-name="quoteright" horiz-adv-x="284" d="M145 750Q183 750 200 732T217 685V668Q217 644 210 619T190 568T159 520T119 479H41Q73 510 93 540T124 605Q98 610 86 627T73 667V685Q73 714 90 732T145 750Z" />
<glyph unicode="&#x201a;" glyph-name="quotesinglbase" horiz-adv-x="286" d="M140 155Q178 155 195 137T212 90V73Q212 49 205 24T185 -27T154 -75T114 -116H36Q68 -85 88 -55T119 10Q93 15 81 32T68 72V90Q68 119 85 137T140 155Z" />
<glyph unicode="&#x201c;" glyph-name="quotedblleft" horiz-adv-x="501" d="M139 469Q102 469 85 487T67 533V550Q67 574 74 600T95 651T126 699T166 740H243Q212 709 192 680T161 614Q187 609 199 592T211 551V533Q211 505 194 487T139 469ZM356 469Q319 469
302 487T284 533V550Q284 574 291 600T312 651T343 699T383 740H460Q429 709 409 680T378 614Q404 609 416 592T428 551V533Q428 505 411 487T356 469Z" />
<glyph unicode="&#x201d;" glyph-name="quotedblright" horiz-adv-x="500" d="M145 750Q183 750 200 732T217 685V668Q217 644 210 619T190 568T159 520T119 479H41Q73 510 93 540T124 605Q98 610 86 627T73 667V685Q73 714 90 732T145 750ZM361 750Q399 750 416
732T433 685V668Q433 644 426 619T406 568T375 520T335 479H257Q289 510 309 540T340 605Q314 610 302 627T289 667V685Q289 714 306 732T361 750Z" />
<glyph unicode="&#x201e;" glyph-name="quotedblbase" horiz-adv-x="502" d="M140 155Q178 155 195 137T212 90V73Q212 49 205 24T185 -27T154 -75T114 -116H36Q68 -85 88 -55T119 10Q93 15 81 32T68 72V90Q68 119 85 137T140 155ZM356 155Q394 155 411 137T428
90V73Q428 49 421 24T401 -27T370 -75T330 -116H252Q284 -85 304 -55T335 10Q309 15 297 32T284 72V90Q284 119 301 137T356 155Z" />
<glyph unicode="&#x2022;" glyph-name="bullet" horiz-adv-x="410" d="M205 165Q168 165 143 174T101 198T78 235T70 281V312Q70 337 77 358T101 394T142 419T205 428Q242 428 267 419T309 395T332 358T340 312V281Q340 231 309 198T205 165Z" />
<glyph unicode="&#x2039;" glyph-name="guilsinglleft" horiz-adv-x="309" d="M226 67L37 230V328L226 491L258 421L129 279L258 137L226 67Z" />
<glyph unicode="&#x203a;" glyph-name="guilsinglright" horiz-adv-x="309" d="M51 137L180 279L51 421L83 491L272 328V230L83 67L51 137Z" />
</font>
</defs>
</svg>
