<?xml version="1.0" standalone="no"?>
<!DOCTYPE svg PUBLIC "-//W3C//DTD SVG 1.1//EN" "http://www.w3.org/Graphics/SVG/1.1/DTD/svg11.dtd">
<svg xmlns="http://www.w3.org/2000/svg">
<defs >
<font id="IBMPlexSans" horiz-adv-x="617" ><font-face
    font-family="IBM Plex Sans"
    units-per-em="1000"
    panose-1="2 11 8 3 5 2 3 0 2 3"
    ascent="1025"
    descent="-275"
    alphabetic="0" />
<glyph unicode=" " glyph-name="space" horiz-adv-x="236" />
<glyph unicode="!" glyph-name="exclam" horiz-adv-x="320" d="M130 220L83 504V698H239V504L193 220H130ZM160 -12Q112 -12 92 10T71 64V88Q71 120 91 142T160 164Q208 164 228 142T249 88V64Q249 32 229 10T160 -12Z" />
<glyph unicode="&quot;" glyph-name="quotedbl" horiz-adv-x="493" d="M68 414V740H200V414H68ZM293 414V740H425V414H293Z" />
<glyph unicode="#" glyph-name="numbersign" horiz-adv-x="632" d="M366 173H206L176 0H82L112 173H11V263H128L157 435H56V525H173L203 698H296L266 525H426L456 698H550L520 525H621V435H504L475 263H576V173H459L429 0H336L366 173ZM381 263L411 435H251L221 263H381Z" />
<glyph unicode="$" glyph-name="dollar" horiz-adv-x="601" d="M250 -82V10Q174 17 122 45T32 115L122 197Q151 167 186 148T263 122V302Q150 325 101 374T52 496Q52 575 102 625T250 686V780H364V686Q424 679 469 657T547 596L456 514Q438 534 413 550T352 574V408Q458
384 508 339T559 217Q559 143 512 87T364 14V-82H250ZM190 500Q190 471 207 455T263 428V576Q225 568 208 549T190 500ZM421 206Q421 228 408 248T352 282V124Q387 134 404 155T421 206Z" />
<glyph unicode="%" glyph-name="percent" horiz-adv-x="974" d="M179 0L663 698H795L311 0H179ZM230 314Q142 314 96 364T50 512Q50 610 96 660T230 710Q318 710 364 660T410 512Q410 414 364 364T230 314ZM230 400Q256 400 269 420T282 486V538Q282 583 269 603T230
624Q204 624 191 604T178 538V486Q178 441 191 421T230 400ZM744 -12Q656 -12 610 38T564 186Q564 284 610 334T744 384Q832 384 878 334T924 186Q924 88 878 38T744 -12ZM744 74Q770 74 783 94T796 160V212Q796 257 783 277T744 298Q718 298 705 278T692 212V160Q692
115 705 95T744 74Z" />
<glyph unicode="&amp;" glyph-name="ampersand" horiz-adv-x="721" d="M487 57Q454 30 407 9T287 -12Q229 -12 185 2T111 43T66 105T50 183Q50 219 60 247T89 298T134 340T190 377Q175 393 161 412T136 452T119 496T112 543Q112 577 126 607T168 661T234 697T321
710Q364 710 400 700T464 669T506 618T522 550Q522 517 511 490T481 441T437 399T383 363L491 246Q504 278 511 314T520 385H687V262H624Q607 198 579 151L718 0H539L487 57ZM317 597Q290 597 272 582T253 540V536Q253 516 266 497T310 442Q345 463 363 484T381
536V540Q381 567 363 582T317 597ZM309 111Q368 111 410 139L263 298Q229 278 215 257T201 209V199Q201 161 228 136T309 111Z" />
<glyph unicode="&apos;" glyph-name="quotesingle" horiz-adv-x="268" d="M68 414V740H200V414H68Z" />
<glyph unicode="(" glyph-name="parenleft" horiz-adv-x="338" d="M37 312Q37 384 50 451T87 575T142 680T212 760H351Q270 685 224 580T177 346V276Q177 143 224 39T351 -138H211Q175 -107 143 -60T88 45T51 171T37 312Z" />
<glyph unicode=")" glyph-name="parenright" horiz-adv-x="338" d="M301 312Q301 239 288 172T251 46T195 -60T127 -138H-13Q67 -65 114 39T161 276V346Q161 474 115 579T-13 760H126Q164 727 196 680T251 576T287 451T301 312Z" />
<glyph unicode="*" glyph-name="asterisk" horiz-adv-x="601" d="M192 238L88 308L215 461L32 516L71 630L245 557L236 747H365L356 557L530 630L569 516L386 461L512 308L408 239L300 401L192 238Z" />
<glyph unicode="+" glyph-name="plus" horiz-adv-x="600" d="M236 63V247H67V365H236V549H364V365H533V247H364V63H236Z" />
<glyph unicode="," glyph-name="comma" horiz-adv-x="310" d="M155 169Q200 169 221 147T243 89V69Q243 8 214 -51T136 -147H36Q71 -114 96 -82T134 -9Q99 -3 83 18T67 69V89Q67 124 88 146T155 169Z" />
<glyph unicode="-" glyph-name="hyphen" horiz-adv-x="403" d="M53 233V377H350V233H53Z" />
<glyph unicode="." glyph-name="period" horiz-adv-x="310" d="M155 -11Q110 -11 89 11T67 69V89Q67 124 88 146T155 169Q200 169 221 147T243 89V69Q243 34 222 12T155 -11Z" />
<glyph unicode="/" glyph-name="slash" horiz-adv-x="460" d="M3 -151L301 740H423L125 -151H3Z" />
<glyph unicode="0" glyph-name="zero" horiz-adv-x="600" d="M300 -12Q163 -12 97 83T31 349Q31 520 97 615T300 710Q437 710 503 615T569 349Q569 178 503 83T300 -12ZM300 115Q360 115 383 159T406 283V415Q406 495 383 539T300 583Q240 583 217 539T194 415V283Q194
203 217 159T300 115Z" />
<glyph unicode="1" glyph-name="one" horiz-adv-x="600" d="M94 0V121H282V589H273L131 403L35 478L202 698H432V121H580V0H94Z" />
<glyph unicode="2" glyph-name="two" horiz-adv-x="600" d="M551 0H57V137L272 321Q301 346 321 366T353 406T371 445T377 486V500Q377 520 369 535T348 560T319 575T285 580Q260 580 242 572T210 551T187 520T173 482L42 532Q54 568 75 600T127 657T202 696T299
710Q356 710 400 694T474 650T521 584T537 500Q537 455 522 418T482 349T422 287T351 228L221 126H551V0Z" />
<glyph unicode="3" glyph-name="three" horiz-adv-x="600" d="M262 422Q318 422 343 443T369 497V504Q369 542 345 565T275 588Q233 588 196 567T133 505L39 593Q59 619 82 640T134 677T199 701T280 710Q336 710 381 697T459 660T509 601T527 525Q527 492 517
465T488 418T445 386T394 368V362Q425 356 451 343T497 308T528 259T539 194Q539 147 520 109T466 44T382 3T274 -12Q221 -12 180 -1T109 28T56 71T16 122L127 208Q150 165 183 138T274 110Q325 110 353 135T382 205V211Q382 254 350 275T260 297H197V422H262Z"
/>
<glyph unicode="4" glyph-name="four" horiz-adv-x="600" d="M337 0V134H30V262L302 698H480V250H568V134H480V0H337ZM150 250H337V543H327L150 250Z" />
<glyph unicode="5" glyph-name="five" horiz-adv-x="600" d="M522 567H205L190 346H198Q208 371 220 391T250 426T291 449T348 457Q393 457 432 442T500 399T546 329T563 235Q563 182 546 137T494 58T409 7T295 -12Q244 -12 205 -1T136 28T84 71T46 122L155 208Q178
167 210 139T296 110Q350 110 377 141T405 223V231Q405 279 377 307T300 335Q259 335 233 319T192 286L69 303L95 698H522V567Z" />
<glyph unicode="6" glyph-name="six" horiz-adv-x="600" d="M304 -12Q242 -12 193 7T111 63T60 151T42 265Q42 338 64 403T122 524T202 624T292 698H499Q435 652 384 611T296 527T234 442T199 348L208 345Q217 365 229 384T260 417T304 441T362 450Q405 450 442
435T507 391T550 323T566 233Q566 179 548 134T495 57T412 6T304 -12ZM304 105Q354 105 382 132T410 211V229Q410 280 382 307T304 335Q254 335 226 308T198 229V211Q198 160 226 133T304 105Z" />
<glyph unicode="7" glyph-name="seven" horiz-adv-x="600" d="M166 0L400 576H182V449H55V698H549V568L324 0H166Z" />
<glyph unicode="8" glyph-name="eight" horiz-adv-x="600" d="M300 -12Q238 -12 190 3T108 46T58 110T40 191Q40 258 77 300T177 360V368Q126 387 94 426T61 526Q61 566 76 600T122 658T197 696T300 710Q358 710 402 697T477 659T523 600T539 526Q539 465 507
426T423 368V360Q486 343 523 301T560 191Q560 147 543 110T492 46T411 4T300 -12ZM300 103Q350 103 376 126T403 192V212Q403 254 377 277T300 301Q250 301 224 278T197 212V192Q197 150 223 127T300 103ZM300 411Q348 411 373 433T398 495V511Q398 550 373 572T300
595Q252 595 227 573T202 511V495Q202 456 227 434T300 411Z" />
<glyph unicode="9" glyph-name="nine" horiz-adv-x="600" d="M558 433Q558 359 536 294T478 174T398 74T308 0H101Q165 46 216 87T304 171T366 256T401 350L392 353Q383 333 371 314T340 281T296 257T238 248Q195 248 158 263T93 307T50 375T34 465Q34 519 52
564T105 641T188 692T296 710Q358 710 407 691T489 635T540 547T558 433ZM296 363Q346 363 374 390T402 469V487Q402 538 374 565T296 593Q246 593 218 566T190 487V469Q190 418 218 391T296 363Z" />
<glyph unicode=":" glyph-name="colon" horiz-adv-x="330" d="M165 -11Q120 -11 99 11T77 69V89Q77 124 98 146T165 169Q210 169 231 147T253 89V69Q253 34 232 12T165 -11ZM165 356Q120 356 99 378T77 436V456Q77 491 98 513T165 536Q210 536 231 514T253 456V436Q253
401 232 379T165 356Z" />
<glyph unicode=";" glyph-name="semicolon" horiz-adv-x="330" d="M165 169Q210 169 231 147T253 89V69Q253 8 224 -51T146 -147H46Q81 -114 106 -82T144 -9Q109 -3 93 18T77 69V89Q77 124 98 146T165 169ZM165 356Q120 356 99 378T77 436V456Q77 491 98 513T165
536Q210 536 231 514T253 456V436Q253 401 232 379T165 356Z" />
<glyph unicode="&lt;" glyph-name="less" horiz-adv-x="600" d="M103 258V345L497 604V455L259 305V298L497 148V-2L103 258Z" />
<glyph unicode="=" glyph-name="equal" horiz-adv-x="600" d="M67 362V480H533V362H67ZM67 130V248H533V130H67Z" />
<glyph unicode="&gt;" glyph-name="greater" horiz-adv-x="600" d="M103 148L341 298V305L103 455V604L497 346V259L103 -2V148Z" />
<glyph unicode="?" glyph-name="question" horiz-adv-x="500" d="M158 233V386Q237 389 276 412T316 492V506Q316 544 294 564T235 584Q196 584 171 560T136 499L14 550Q23 580 40 608T84 659T150 696T240 710Q292 710 335 695T409 653T456 588T473 504Q473 462
459 428T421 369T365 327T298 305V233H158ZM230 -12Q182 -12 162 10T141 64V88Q141 120 161 142T230 164Q278 164 298 142T319 88V64Q319 32 299 10T230 -12Z" />
<glyph unicode="@" glyph-name="at" horiz-adv-x="903" d="M672 -121H462Q367 -121 293 -91T167 -7T88 123T61 291Q61 382 89 459T169 591T295 678T462 709Q548 709 619 683T740 608T818 490T846 335Q846 215 796 149T659 82Q605 82 571 108T534 176H529Q519 134
492 109T414 84Q348 84 304 136T260 291Q260 393 304 445T414 498Q456 498 482 476T517 420H522V489H633V220Q633 170 677 170Q711 170 732 206T753 320V348Q753 412 732 463T672 549T580 603T462 622Q391 622 335 599T238 535T176 436T154 310V272Q154 204 175
148T237 51T334 -11T462 -33H672V-121ZM455 175Q481 175 501 194T522 237V353Q522 376 502 391T455 407Q419 407 398 384T376 325V257Q376 221 397 198T455 175Z" />
<glyph unicode="A" glyph-name="A" horiz-adv-x="685" d="M507 0L457 166H224L174 0H20L250 698H438L665 0H507ZM342 560H337L260 295H420L342 560Z" />
<glyph unicode="B" glyph-name="B" horiz-adv-x="667" d="M77 698H416Q503 698 551 649T600 519Q600 479 590 451T562 405T521 379T470 369V363Q495 363 522 354T573 326T611 275T627 199Q627 158 614 122T576 58T519 16T447 0H77V698ZM229 128H404Q434 128 451
144T469 191V225Q469 255 452 271T404 288H229V128ZM229 412H380Q410 412 427 429T444 476V506Q444 536 427 553T380 570H229V412Z" />
<glyph unicode="C" glyph-name="C" horiz-adv-x="651" d="M359 -12Q288 -12 231 10T134 77T72 188T50 344Q50 432 72 500T134 615T231 686T359 710Q456 710 519 671T620 546L489 478Q475 522 446 548T359 575Q292 575 252 532T211 405V293Q211 210 251 167T359
123Q415 123 448 153T498 227L622 155Q583 75 520 32T359 -12Z" />
<glyph unicode="D" glyph-name="D" horiz-adv-x="697" d="M77 698H340Q409 698 466 676T563 611T625 502T647 349Q647 262 625 197T563 88T466 22T340 0H77V698ZM340 135Q408 135 447 173T486 295V403Q486 487 447 525T340 563H229V135H340Z" />
<glyph unicode="E" glyph-name="E" horiz-adv-x="607" d="M77 0V698H552V563H229V420H506V286H229V135H552V0H77Z" />
<glyph unicode="F" glyph-name="F" horiz-adv-x="585" d="M77 0V698H540V563H229V420H494V286H229V0H77Z" />
<glyph unicode="G" glyph-name="G" horiz-adv-x="719" d="M520 111H515Q507 58 461 23T336 -12Q276 -12 224 11T133 79T72 191T50 346Q50 434 73 502T137 616T237 686T366 710Q460 710 528 670T635 548L511 477Q495 518 461 546T366 575Q295 575 253 534T211 405V293Q211
206 253 165T366 123Q394 123 419 129T463 149T492 182T503 227V262H373V389H648V0H520V111Z" />
<glyph unicode="H" glyph-name="H" horiz-adv-x="724" d="M495 286H229V0H77V698H229V420H495V698H647V0H495V286Z" />
<glyph unicode="I" glyph-name="I" horiz-adv-x="432" d="M50 0V121H140V577H50V698H382V577H292V121H382V0H50Z" />
<glyph unicode="J" glyph-name="J" horiz-adv-x="559" d="M486 698V202Q486 154 471 115T425 48T353 5T256 -11Q204 -11 165 3T97 43T50 105T25 185L167 213Q184 122 254 122Q287 122 310 143T334 209V576H122V698H486Z" />
<glyph unicode="K" glyph-name="K" horiz-adv-x="696" d="M320 304L229 194V0H77V698H229V366H235L334 501L491 698H663L428 411L684 0H505L320 304Z" />
<glyph unicode="L" glyph-name="L" horiz-adv-x="530" d="M77 0V698H229V135H495V0H77Z" />
<glyph unicode="M" glyph-name="M" horiz-adv-x="819" d="M599 458H596L545 356L409 109L276 355L223 465H220V0H77V698H238L409 371H411L580 698H742V0H599V458Z" />
<glyph unicode="N" glyph-name="N" horiz-adv-x="724" d="M290 330L223 470H220V0H77V698H243L434 368L501 228H504V698H647V0H481L290 330Z" />
<glyph unicode="O" glyph-name="O" horiz-adv-x="714" d="M357 -12Q288 -12 231 11T134 79T72 192T50 349Q50 438 72 505T134 618T231 687T357 710Q426 710 483 687T580 619T642 506T664 349Q664 260 642 193T580 80T483 11T357 -12ZM357 123Q426 123 464 168T503
297V401Q503 485 465 530T357 575Q288 575 250 530T211 401V297Q211 213 249 168T357 123Z" />
<glyph unicode="P" glyph-name="P" horiz-adv-x="656" d="M77 0V698H407Q456 698 495 682T561 636T604 566T619 475Q619 425 604 384T562 314T495 269T407 252H229V0H77ZM229 384H389Q423 384 442 401T462 453V497Q462 531 443 548T389 566H229V384Z" />
<glyph unicode="Q" glyph-name="Q" horiz-adv-x="714" d="M542 -184H448Q367 -184 330 -146T293 -36V-7Q181 13 116 102T50 349Q50 438 72 505T134 618T231 687T357 710Q426 710 483 687T580 619T642 506T664 349Q664 197 603 108T435 -4V-60H542V-184ZM357 123Q426
123 464 168T503 297V401Q503 485 465 530T357 575Q288 575 250 530T211 401V297Q211 213 249 168T357 123Z" />
<glyph unicode="R" glyph-name="R" horiz-adv-x="674" d="M229 0H77V698H408Q456 698 495 682T561 637T604 566T619 475Q619 404 588 351T492 274L629 0H460L338 256H229V0ZM389 384Q423 384 442 401T462 453V497Q462 531 443 548T389 566H229V384H389Z" />
<glyph unicode="S" glyph-name="S" horiz-adv-x="624" d="M303 -12Q211 -12 147 19T38 101L138 202Q209 122 313 122Q369 122 396 145T423 206Q423 235 407 254T342 281L273 290Q162 304 111 357T59 498Q59 545 77 584T128 651T210 694T321 710Q400 710 460 685T563
612L462 510Q437 539 402 557T312 576Q261 576 236 558T211 508Q211 472 230 456T294 433L363 422Q471 405 523 356T575 215Q575 165 557 123T505 51T419 5T303 -12Z" />
<glyph unicode="T" glyph-name="T" horiz-adv-x="584" d="M368 563V0H216V563H27V698H557V563H368Z" />
<glyph unicode="U" glyph-name="U" horiz-adv-x="694" d="M221 698V270Q221 196 250 160T347 123Q415 123 444 159T473 270V698H621V286Q621 209 607 153T559 60T474 6T347 -12Q272 -12 220 5T135 59T88 152T73 286V698H221Z" />
<glyph unicode="V" glyph-name="V" horiz-adv-x="650" d="M239 0L14 698H168L272 363L327 144H330L383 363L487 698H636L409 0H239Z" />
<glyph unicode="W" glyph-name="W" horiz-adv-x="973" d="M187 0L29 698H179L245 363L282 169H285L329 363L406 698H572L650 363L693 169H696L733 363L800 698H944L782 0H609L521 378L487 531H484L449 378L361 0H187Z" />
<glyph unicode="X" glyph-name="X" horiz-adv-x="673" d="M657 0H481L330 257H327L180 0H16L240 361L27 698H204L340 462H343L481 698H645L430 358L657 0Z" />
<glyph unicode="Y" glyph-name="Y" horiz-adv-x="649" d="M248 0V273L9 698H179L329 420H331L475 698H640L401 274V0H248Z" />
<glyph unicode="Z" glyph-name="Z" horiz-adv-x="607" d="M568 0H39V135L383 563H56V698H560V563L215 135H568V0Z" />
<glyph unicode="[" glyph-name="bracketleft" horiz-adv-x="334" d="M77 -138V760H284V656H214V-34H284V-138H77Z" />
<glyph unicode="\" glyph-name="backslash" horiz-adv-x="460" d="M334 -151L36 740H158L456 -151H334Z" />
<glyph unicode="]" glyph-name="bracketright" horiz-adv-x="334" d="M257 760V-138H50V-34H120V656H50V760H257Z" />
<glyph unicode="^" glyph-name="asciicircum" horiz-adv-x="600" d="M440 277L300 537H294L154 277L42 334L242 698H362L559 334L440 277Z" />
<glyph unicode="_" glyph-name="underscore" horiz-adv-x="556" d="M30 -190V-67H526V-190H30Z" />
<glyph unicode="`" glyph-name="grave" horiz-adv-x="600" d="M150 755L273 816L372 622L284 579L150 755Z" />
<glyph unicode="a" glyph-name="a" horiz-adv-x="569" d="M457 0Q417 0 391 25T357 92H351Q339 41 298 15T197 -12Q118 -12 76 30T34 141Q34 224 94 264T259 305H342V338Q342 376 322 398T255 421Q211 421 185 402T142 359L54 437Q86 484 134 510T266 537Q378
537 434 488T490 345V115H539V0H457ZM252 91Q289 91 315 107T342 159V221H270Q183 221 183 162V147Q183 118 201 105T252 91Z" />
<glyph unicode="b" glyph-name="b" horiz-adv-x="608" d="M69 740H217V437H222Q233 481 272 509T363 537Q463 537 514 467T565 263Q565 129 514 59T363 -12Q337 -12 314 -5T273 16T241 48T222 88H217V0H69V740ZM314 108Q356 108 383 137T411 217V308Q411 358 384
387T314 417Q272 417 245 397T217 340V185Q217 149 244 129T314 108Z" />
<glyph unicode="c" glyph-name="c" horiz-adv-x="517" d="M281 -12Q222 -12 176 7T99 62T52 149T36 263Q36 326 52 376T99 463T176 518T281 537Q361 537 414 501T491 400L371 348Q364 378 342 399T281 420Q236 420 213 391T190 311V213Q190 163 213 134T281 105Q321
105 344 126T379 183L494 133Q468 58 414 23T281 -12Z" />
<glyph unicode="d" glyph-name="d" horiz-adv-x="608" d="M391 88H386Q380 67 367 49T336 17T294 -4T245 -12Q145 -12 94 58T43 263Q43 397 94 467T245 537Q296 537 335 509T386 437H391V740H539V0H391V88ZM294 108Q336 108 363 128T391 185V340Q391 376 364 396T294
417Q252 417 225 388T197 308V217Q197 167 224 138T294 108Z" />
<glyph unicode="e" glyph-name="e" horiz-adv-x="562" d="M288 -12Q228 -12 181 7T102 62T53 149T36 263Q36 325 52 375T99 462T177 517T282 537Q347 537 393 515T469 456T512 371T526 269V225H189V217Q189 165 217 135T305 104Q351 104 380 122T434 167L508 75Q473
34 417 11T288 -12ZM285 428Q240 428 215 399T189 320V312H373V321Q373 369 352 398T285 428Z" />
<glyph unicode="f" glyph-name="f" horiz-adv-x="361" d="M95 410H21V525H95V587Q95 663 135 701T252 740H348V625H243V525H348V410H243V0H95V410Z" />
<glyph unicode="g" glyph-name="g" horiz-adv-x="552" d="M555 -38Q555 -80 541 -112T493 -166T406 -200T271 -212Q203 -212 156 -204T79 -180T36 -142T22 -90Q22 -46 48 -21T120 10V21Q82 28 63 53T44 113Q44 134 52 149T74 176T106 195T142 206V210Q94 232 71
270T48 360Q48 440 103 488T273 537Q325 537 362 527V547Q362 589 382 607T441 626H524V516H408V510Q454 488 476 450T498 360Q498 281 443 234T273 186Q222 186 180 197Q157 182 157 155Q157 136 171 126T220 115H372Q468 115 511 75T555 -38ZM416 -58Q416 -35
398 -23T335 -11H155Q145 -21 141 -33T136 -58Q136 -87 161 -100T246 -114H306Q366 -114 391 -101T416 -58ZM273 283Q317 283 338 301T360 355V367Q360 402 339 420T273 439Q229 439 208 421T186 367V355Q186 320 207 302T273 283Z" />
<glyph unicode="h" glyph-name="h" horiz-adv-x="596" d="M69 740H217V436H223Q237 477 272 507T369 537Q450 537 491 483T533 329V0H385V317Q385 368 369 392T312 417Q294 417 277 413T247 398T225 374T217 340V0H69V740Z" />
<glyph unicode="i" glyph-name="i" horiz-adv-x="286" d="M143 581Q98 581 78 601T57 654V676Q57 708 77 728T143 749Q188 749 208 729T229 676V654Q229 622 209 602T143 581ZM69 525H217V0H69V525Z" />
<glyph unicode="j" glyph-name="j" horiz-adv-x="286" d="M69 525H217V-56Q217 -126 182 -163T69 -200H-9V-85H69V525ZM143 581Q98 581 78 601T57 654V676Q57 708 77 728T143 749Q188 749 208 729T229 676V654Q229 622 209 602T143 581Z" />
<glyph unicode="k" glyph-name="k" horiz-adv-x="577" d="M69 740H217V303H223L288 400L393 525H557L382 324L577 0H401L283 222L217 148V0H69V740Z" />
<glyph unicode="l" glyph-name="l" horiz-adv-x="303" d="M216 0Q140 0 105 37T69 144V740H217V115H283V0H216Z" />
<glyph unicode="m" glyph-name="m" horiz-adv-x="894" d="M69 0V525H217V436H223Q237 478 271 507T364 537Q418 537 456 510T511 431H514Q521 453 535 472T571 506T618 528T674 537Q750 537 790 483T831 329V0H683V317Q683 417 611 417Q578 417 551 398T524 340V0H376V317Q376
417 304 417Q288 417 273 413T245 398T225 374T217 340V0H69Z" />
<glyph unicode="n" glyph-name="n" horiz-adv-x="596" d="M69 0V525H217V436H223Q237 477 272 507T369 537Q450 537 491 483T533 329V0H385V317Q385 368 369 392T312 417Q294 417 277 413T247 398T225 374T217 340V0H69Z" />
<glyph unicode="o" glyph-name="o" horiz-adv-x="564" d="M282 -12Q224 -12 179 7T102 62T53 149T36 263Q36 326 53 377T101 463T178 518T282 537Q340 537 385 518T462 464T511 377T528 263Q528 200 511 149T463 62T386 7T282 -12ZM282 105Q326 105 350 132T374
209V316Q374 366 350 393T282 420Q238 420 214 393T190 316V209Q190 159 214 132T282 105Z" />
<glyph unicode="p" glyph-name="p" horiz-adv-x="608" d="M69 525H217V437H222Q233 481 272 509T363 537Q463 537 514 467T565 263Q565 129 514 59T363 -12Q337 -12 314 -5T273 16T241 48T222 88H217V-200H69V525ZM314 108Q356 108 383 137T411 217V308Q411 358
384 387T314 417Q272 417 245 397T217 340V185Q217 149 244 129T314 108Z" />
<glyph unicode="q" glyph-name="q" horiz-adv-x="608" d="M391 88H386Q380 67 367 49T336 17T294 -4T245 -12Q145 -12 94 58T43 263Q43 397 94 467T245 537Q296 537 335 509T386 437H391V525H539V-200H391V88ZM294 108Q336 108 363 128T391 185V340Q391 376 364
396T294 417Q252 417 225 388T197 308V217Q197 167 224 138T294 108Z" />
<glyph unicode="r" glyph-name="r" horiz-adv-x="404" d="M69 0V525H217V411H222Q226 433 236 453T262 490T302 515T356 525H382V387H345Q280 387 249 370T217 307V0H69Z" />
<glyph unicode="s" glyph-name="s" horiz-adv-x="504" d="M247 -12Q171 -12 119 12T26 82L113 170Q141 139 175 121T252 103Q296 103 313 116T330 153Q330 190 277 197L220 204Q43 226 43 366Q43 404 57 435T98 489T162 524T247 537Q288 537 319 532T375 516T420
490T461 455L376 368Q351 393 320 407T255 422Q217 422 201 410T185 378Q185 357 196 346T240 329L299 321Q472 298 472 163Q472 125 456 93T411 38T340 1T247 -12Z" />
<glyph unicode="t" glyph-name="t" horiz-adv-x="383" d="M253 0Q176 0 137 39T97 153V410H23V525H60Q90 525 101 539T112 581V667H245V525H349V410H245V115H341V0H253Z" />
<glyph unicode="u" glyph-name="u" horiz-adv-x="596" d="M379 88H374Q367 68 356 50T326 18T284 -4T227 -12Q146 -12 105 41T63 195V525H211V208Q211 160 228 134T286 108Q303 108 320 113T350 127T371 151T379 184V525H527V0H379V88Z" />
<glyph unicode="v" glyph-name="v" horiz-adv-x="538" d="M181 0L9 525H155L220 313L269 123H277L326 313L389 525H529L357 0H181Z" />
<glyph unicode="w" glyph-name="w" horiz-adv-x="841" d="M19 525H162L213 313L249 153H253L295 313L355 525H490L551 313L594 153H598L634 313L685 525H822L677 0H522L458 222L421 358H418L382 222L318 0H166L19 525Z" />
<glyph unicode="x" glyph-name="x" horiz-adv-x="560" d="M18 0L191 267L20 525H188L286 360H290L385 525H541L367 262L542 0H374L273 171H269L172 0H18Z" />
<glyph unicode="y" glyph-name="y" horiz-adv-x="534" d="M390 525H528L326 -81Q306 -142 270 -171T165 -200H73V-85H172L190 -27L6 525H153L230 280L268 128H274L313 280L390 525Z" />
<glyph unicode="z" glyph-name="z" horiz-adv-x="518" d="M39 0V117L300 410H48V525H472V409L210 115H479V0H39Z" />
<glyph unicode="{" glyph-name="braceleft" horiz-adv-x="372" d="M213 -138Q172 -138 144 -112T116 -37V166Q116 210 89 232T19 255V368Q61 368 88 390T116 457V659Q116 708 144 734T213 760H322V656H253V441Q253 417 245 396T222 357T189 329T149 313V309Q170
305 189 294T222 265T244 227T253 181V-34H322V-138H213Z" />
<glyph unicode="|" glyph-name="bar" horiz-adv-x="402" d="M138 -138V760H264V-138H138Z" />
<glyph unicode="}" glyph-name="braceright" horiz-adv-x="372" d="M159 760Q200 760 228 734T256 659V457Q256 413 283 391T353 368V255Q311 255 284 233T256 166V-37Q256 -86 228 -112T159 -138H50V-34H119V182Q119 206 127 227T150 266T183 294T223 310V314Q202
318 183 329T150 358T128 396T119 442V656H50V760H159Z" />
<glyph unicode="~" glyph-name="asciitilde" horiz-adv-x="600" d="M416 212Q379 212 351 221T290 248Q263 262 237 271T180 281Q157 281 141 275T102 254L53 338Q71 364 103 382T184 400Q221 400 249 391T310 364Q337 350 363 341T420 331Q443 331 459 337T498
358L547 274Q529 248 497 230T416 212Z" />
<glyph unicode="&#xa0;" glyph-name="uni00A0" horiz-adv-x="236" />
<glyph unicode="&#xa1;" glyph-name="exclamdown" horiz-adv-x="320" d="M82 -173V21L128 305H191L238 21V-173H82ZM160 361Q112 361 92 383T71 437V461Q71 493 91 515T160 537Q208 537 228 515T249 461V437Q249 405 229 383T160 361Z" />
<glyph unicode="&#xa2;" glyph-name="cent" horiz-adv-x="552" d="M237 -114V-7Q143 11 92 80T41 258Q41 367 92 436T237 523V630H347V524Q408 514 447 482T508 402L402 344Q392 366 377 384T338 411V104Q364 113 381 131T411 173L516 114Q493 66 452 34T347 -8V-114H237ZM182
216Q182 176 198 148T247 106V410Q215 397 199 369T182 300V216Z" />
<glyph unicode="&#xa3;" glyph-name="sterling" horiz-adv-x="582" d="M66 0V136Q104 153 126 184T149 258Q149 276 145 291H34V411H100Q92 432 87 455T82 505Q82 551 99 589T150 654T229 695T332 710Q413 710 470 680T568 589L458 512Q430 548 401 563T336 579Q287
579 261 554T235 481Q235 461 239 445T249 411H445V291H295Q296 284 296 278T297 263Q297 237 290 217T272 181T247 155T220 137V128H554V0H66Z" />
<glyph unicode="&#xa4;" glyph-name="currency" horiz-adv-x="628" d="M314 107Q276 107 242 115T182 137L91 45L10 125L101 216Q69 271 69 349Q69 427 101 482L10 573L91 653L182 561Q208 575 242 583T314 591Q352 591 386 583T446 561L537 653L618 573L527 482Q559
427 559 349Q559 271 527 216L618 125L537 45L446 137Q420 123 386 115T314 107ZM314 214Q360 214 385 242T411 321V377Q411 428 386 456T314 484Q268 484 243 456T217 377V321Q217 270 242 242T314 214Z" />
<glyph unicode="&#xa5;" glyph-name="yen" horiz-adv-x="650" d="M399 133V0H246V133H78V223H246V291H78V381H188L19 698H191L329 423H331L468 698H631L457 381H567V291H399V223H567V133H399Z" />
<glyph unicode="&#xa6;" glyph-name="brokenbar" horiz-adv-x="402" d="M138 401V760H264V401H138ZM138 -138V221H264V-138H138Z" />
<glyph unicode="&#xa7;" glyph-name="section" horiz-adv-x="569" d="M488 13Q488 -28 472 -60T428 -114T359 -149T271 -161Q219 -161 167 -145T72 -89L144 -1Q170 -27 202 -41T273 -56Q314 -56 339 -40T364 7Q364 35 343 50T277 78L200 99Q158 111 129 127T83
162T58 203T50 247Q50 290 76 326T157 385V402Q122 425 101 459T80 541Q80 582 96 613T140 666T209 699T296 710Q350 710 401 695T497 638L424 550Q398 576 368 590T293 605Q255 605 230 592T204 546Q204 520 225 505T291 478L368 457Q410 445 439 429T486 393T511
351T519 307Q519 264 493 228T411 169V153Q446 130 467 96T488 13ZM396 262Q396 288 380 309T316 345L240 366Q222 371 208 376Q191 356 182 336T172 292Q172 267 188 246T252 211L328 190Q336 188 344 185T361 179Q378 199 387 219T396 262Z" />
<glyph unicode="&#xa8;" glyph-name="dieresis" horiz-adv-x="600" d="M190 600Q145 600 128 618T110 663V688Q110 714 127 732T190 751Q235 751 252 733T270 688V663Q270 637 253 619T190 600ZM410 600Q365 600 348 618T330 663V688Q330 714 347 732T410 751Q455
751 472 733T490 688V663Q490 637 473 619T410 600Z" />
<glyph unicode="&#xa9;" glyph-name="copyright" horiz-adv-x="792" d="M396 -12Q320 -12 256 13T146 85T74 198T48 349Q48 433 74 499T146 613T256 685T396 710Q472 710 536 685T646 613T718 500T744 349Q744 265 718 199T646 85T536 13T396 -12ZM396 52Q456
52 506 72T592 128T649 211T670 315V383Q670 438 650 486T593 570T506 625T396 646Q336 646 286 626T200 570T143 487T122 383V315Q122 259 142 211T199 128T286 73T396 52ZM403 134Q354 134 316 149T250 193T209 260T195 349Q195 398 209 437T250 505T315 548T403
564Q476 564 520 533T584 451L484 403Q472 429 454 445T403 461Q370 461 351 442T332 389V309Q332 276 351 257T403 237Q436 237 457 253T491 295L592 248Q581 225 566 205T527 168T474 143T403 134Z" />
<glyph unicode="&#xaa;" glyph-name="ordfeminine" horiz-adv-x="449" d="M405 330H345Q320 330 299 343T272 394H268Q258 359 230 342T160 324Q109 324 78 352T46 433Q46 490 87 517T206 544H262V563Q262 596 248 612T199 628Q167 628 147 616T112 583L56 633Q74
665 112 684T211 704Q283 704 324 670T366 567V405H405V330ZM209 488Q147 488 147 445V431Q147 411 161 402T200 392Q226 392 244 405T262 444V488H209Z" />
<glyph unicode="&#xab;" glyph-name="guillemotleft" horiz-adv-x="558" d="M224 49L38 209V335L224 495L267 403L147 272L267 141L224 49ZM465 49L279 209V335L465 495L508 403L388 272L508 141L465 49Z" />
<glyph unicode="&#xac;" glyph-name="logicalnot" horiz-adv-x="600" d="M412 78V247H52V365H533V78H412Z" />
<glyph unicode="&#xad;" glyph-name="uni00AD" horiz-adv-x="403" d="M53 233V377H350V233H53Z" />
<glyph unicode="&#xae;" glyph-name="registered" horiz-adv-x="464" d="M232 298Q190 298 153 313T89 356T46 422T30 504Q30 548 45 586T88 651T153 694T232 710Q274 710 311 695T375 652T418 586T434 504Q434 460 419 422T376 357T311 314T232 298ZM232 345Q262
345 289 354T336 382T368 427T380 488V520Q380 554 368 580T336 625T289 653T232 663Q202 663 175 654T128 626T96 581T84 520V488Q84 454 96 428T128 383T175 355T232 345ZM209 400H145V609H247Q289 609 308 589T327 539Q327 514 317 498T290 473L333 400H264L232
461H209V400ZM234 508Q262 508 262 531V538Q262 561 234 561H209V508H234Z" />
<glyph unicode="&#xaf;" glyph-name="overscore" horiz-adv-x="600" d="M147 727H453V624H147V727Z" />
<glyph unicode="&#xb0;" glyph-name="degree" horiz-adv-x="470" d="M235 334Q196 334 162 348T103 387T64 447T50 522Q50 562 64 596T103 656T162 696T235 710Q274 710 308 696T367 657T406 597T420 522Q420 481 406 447T367 388T308 348T235 334ZM235 429Q273
429 296 455T319 522Q319 562 296 588T235 615Q197 615 174 589T151 522Q151 482 174 456T235 429Z" />
<glyph unicode="&#xb1;" glyph-name="plusminus" horiz-adv-x="600" d="M236 184V351H67V470H236V635H364V470H533V351H364V184H236ZM67 0V119H533V0H67Z" />
<glyph unicode="&#xb2;" glyph-name="twosuperior" horiz-adv-x="347" d="M322 329H33V417L142 500Q161 514 173 524T194 544T205 563T209 583V584Q209 604 195 611T166 618Q141 618 129 605T111 573L22 606Q36 648 74 676T176 704Q244 704 281 672T318 590Q318
564 309 543T283 505T247 472T204 445L145 412H322V329Z" />
<glyph unicode="&#xb3;" glyph-name="threesuperior" horiz-adv-x="345" d="M151 558Q178 558 190 566T202 585V589Q202 603 191 614T157 625Q136 625 115 614T77 582L15 641Q41 672 74 688T160 704Q231 704 270 676T310 603Q310 568 288 547T234 522V518Q272
512 294 490T316 433Q316 382 273 353T159 323Q94 323 59 345T4 398L80 456Q91 433 110 418T159 402Q182 402 195 413T209 442V444Q209 461 192 468T148 476H117V558H151Z" />
<glyph unicode="&#xb4;" glyph-name="acute" horiz-adv-x="600" d="M316 579L228 622L327 816L450 755L316 579Z" />
<glyph unicode="&#xb5;" glyph-name="mu" horiz-adv-x="602" d="M69 -200V525H217V206Q217 158 234 133T291 108Q309 108 325 113T355 127T377 151T385 185V525H533V0H385V88H380Q367 47 338 18T264 -12Q235 -12 218 0T192 30H187L217 -106V-200H69Z" />
<glyph unicode="&#xb6;" glyph-name="paragraph" horiz-adv-x="677" d="M242 260Q198 260 160 277T93 324T48 394T31 479Q31 524 47 564T92 633T159 680T242 698H624V592H558V-149H449V592H351V-149H242V260Z" />
<glyph unicode="&#xb7;" glyph-name="middot" horiz-adv-x="358" d="M179 213Q134 213 113 235T91 293V313Q91 348 112 370T179 393Q224 393 245 371T267 313V293Q267 258 246 236T179 213Z" />
<glyph unicode="&#xb8;" glyph-name="cedilla" horiz-adv-x="600" d="M314 -212Q262 -212 233 -198T190 -168L236 -112Q246 -124 262 -132T302 -141Q321 -141 333 -135T346 -116Q346 -110 343 -104T332 -93T309 -83T271 -76L250 -74L272 30H339L321 -55L325 -59Q337
-56 349 -54T373 -52Q403 -52 424 -68T446 -121Q446 -147 435 -164T406 -192T363 -207T314 -212Z" />
<glyph unicode="&#xb9;" glyph-name="onesuperior" horiz-adv-x="344" d="M49 329V408H142V618H136L75 535L8 583L93 698H243V408H324V329H49Z" />
<glyph unicode="&#xba;" glyph-name="ordmasculine" horiz-adv-x="433" d="M217 324Q132 324 85 375T38 514Q38 602 85 653T217 704Q302 704 349 653T396 514Q396 426 349 375T217 324ZM217 402Q251 402 270 422T289 485V543Q289 585 270 605T217 626Q183 626
164 606T145 543V485Q145 443 164 423T217 402Z" />
<glyph unicode="&#xbb;" glyph-name="guillemotright" horiz-adv-x="558" d="M50 141L170 272L50 403L93 495L279 335V209L93 49L50 141ZM291 141L411 272L291 403L334 495L520 335V209L334 49L291 141Z" />
<glyph unicode="&#xbc;" glyph-name="onequarter" horiz-adv-x="837" d="M49 329V408H142V618H136L75 535L8 583L93 698H243V408H324V329H49ZM114 0L643 698H751L222 0H114ZM674 0V70H508V155L657 369H772V146H818V70H772V0H674ZM674 259H667L587 146H674V259Z" />
<glyph unicode="&#xbd;" glyph-name="onehalf" horiz-adv-x="859" d="M49 329V408H142V618H136L75 535L8 583L93 698H243V408H324V329H49ZM114 0L643 698H751L222 0H114ZM834 0H545V88L654 171Q673 185 685 195T706 215T717 234T721 254V255Q721 275 707 282T678
289Q653 289 641 276T623 244L534 277Q548 319 586 347T688 375Q756 375 793 343T830 261Q830 235 821 214T795 176T759 143T716 116L657 83H834V0Z" />
<glyph unicode="&#xbe;" glyph-name="threequarters" horiz-adv-x="828" d="M151 558Q178 558 190 566T202 585V589Q202 603 191 614T157 625Q136 625 115 614T77 582L15 641Q41 672 74 688T160 704Q231 704 270 676T310 603Q310 568 288 547T234 522V518Q272
512 294 490T316 433Q316 382 273 353T159 323Q94 323 59 345T4 398L80 456Q91 433 110 418T159 402Q182 402 195 413T209 442V444Q209 461 192 468T148 476H117V558H151ZM105 0L634 698H742L213 0H105ZM665 0V70H499V155L648 369H763V146H809V70H763V0H665ZM665
259H658L578 146H665V259Z" />
<glyph unicode="&#xbf;" glyph-name="questiondown" horiz-adv-x="494" d="M260 -185Q207 -185 165 -170T91 -128T44 -63T27 21Q27 63 41 97T79 156T135 198T202 220V292H342V139Q263 136 224 113T184 33V19Q184 -19 206 -39T265 -59Q304 -59 329 -35T364 26L486
-25Q477 -55 460 -84T416 -135T350 -171T260 -185ZM270 361Q222 361 202 383T181 437V461Q181 493 201 515T270 537Q318 537 338 515T359 461V437Q359 405 339 383T270 361Z" />
<glyph unicode="&#xc0;" glyph-name="Agrave" horiz-adv-x="685" d="M507 0L457 166H224L174 0H20L250 698H438L665 0H507ZM342 560H337L260 295H420L342 560ZM189 916L312 977L411 783L323 740L189 916Z" />
<glyph unicode="&#xc1;" glyph-name="Aacute" horiz-adv-x="685" d="M507 0L457 166H224L174 0H20L250 698H438L665 0H507ZM342 560H337L260 295H420L342 560ZM355 740L267 783L366 977L489 916L355 740Z" />
<glyph unicode="&#xc2;" glyph-name="Acircumflex" horiz-adv-x="685" d="M507 0L457 166H224L174 0H20L250 698H438L665 0H507ZM342 560H337L260 295H420L342 560ZM401 956L533 797L460 739L339 854L218 739L145 797L277 956H401Z" />
<glyph unicode="&#xc3;" glyph-name="Atilde" horiz-adv-x="685" d="M507 0L457 166H224L174 0H20L250 698H438L665 0H507ZM342 560H337L260 295H420L342 560ZM415 762Q392 762 375 768T338 782Q316 791 298 797T260 804Q243 804 230 798T201 779L149 847Q167
874 195 892T263 911Q286 911 303 905T340 891Q362 882 380 876T418 869Q435 869 448 875T477 894L529 826Q511 799 483 781T415 762Z" />
<glyph unicode="&#xc4;" glyph-name="Adieresis" horiz-adv-x="685" d="M507 0L457 166H224L174 0H20L250 698H438L665 0H507ZM342 560H337L260 295H420L342 560ZM229 761Q184 761 167 779T149 824V849Q149 875 166 893T229 912Q274 912 291 894T309 849V824Q309
798 292 780T229 761ZM449 761Q404 761 387 779T369 824V849Q369 875 386 893T449 912Q494 912 511 894T529 849V824Q529 798 512 780T449 761Z" />
<glyph unicode="&#xc5;" glyph-name="Aring" horiz-adv-x="685" d="M507 0L457 166H224L174 0H20L250 698H438L665 0H507ZM342 560H337L260 295H420L342 560ZM339 719Q308 719 281 729T234 759T203 804T191 862Q191 893 202 919T234 965T281 994T339 1005Q370
1005 397 995T444 965T475 920T487 862Q487 831 476 805T444 759T397 730T339 719ZM339 794Q364 794 377 808T390 845V879Q390 902 377 916T339 930Q314 930 301 916T288 879V845Q288 822 301 808T339 794Z" />
<glyph unicode="&#xc6;" glyph-name="AE" horiz-adv-x="968" d="M438 166H229L151 0H-1L340 698H913V563H589V420H867V286H589V135H913V0H438V166ZM415 563L290 295H438V563H415Z" />
<glyph unicode="&#xc7;" glyph-name="Ccedilla" horiz-adv-x="651" d="M359 575Q292 575 252 532T211 405V293Q211 210 251 167T359 123Q415 123 448 153T498 227L622 155Q583 75 520 32T364 -12L355 -55L359 -59Q371 -56 383 -54T407 -52Q437 -52 458 -68T480
-121Q480 -147 469 -164T440 -192T397 -207T348 -212Q296 -212 267 -198T224 -168L270 -112Q280 -124 296 -132T336 -141Q355 -141 367 -135T380 -116Q380 -110 377 -104T366 -93T343 -83T305 -76L284 -74L298 -7Q183 10 117 98T50 344Q50 432 72 500T134 615T231
686T359 710Q456 710 519 671T620 546L489 478Q475 522 446 548T359 575Z" />
<glyph unicode="&#xc8;" glyph-name="Egrave" horiz-adv-x="607" d="M77 0V698H552V563H229V420H506V286H229V135H552V0H77ZM165 916L288 977L387 783L299 740L165 916Z" />
<glyph unicode="&#xc9;" glyph-name="Eacute" horiz-adv-x="607" d="M77 0V698H552V563H229V420H506V286H229V135H552V0H77ZM331 740L243 783L342 977L465 916L331 740Z" />
<glyph unicode="&#xca;" glyph-name="Ecircumflex" horiz-adv-x="607" d="M77 0V698H552V563H229V420H506V286H229V135H552V0H77ZM377 956L509 797L436 739L315 854L194 739L121 797L253 956H377Z" />
<glyph unicode="&#xcb;" glyph-name="Edieresis" horiz-adv-x="607" d="M77 0V698H552V563H229V420H506V286H229V135H552V0H77ZM205 761Q160 761 143 779T125 824V849Q125 875 142 893T205 912Q250 912 267 894T285 849V824Q285 798 268 780T205 761ZM425 761Q380
761 363 779T345 824V849Q345 875 362 893T425 912Q470 912 487 894T505 849V824Q505 798 488 780T425 761Z" />
<glyph unicode="&#xcc;" glyph-name="Igrave" horiz-adv-x="432" d="M50 0V121H140V577H50V698H382V577H292V121H382V0H50ZM323 916L446 977L545 783L457 740L323 916Z" />
<glyph unicode="&#xcd;" glyph-name="Iacute" horiz-adv-x="432" d="M50 0V121H140V577H50V698H382V577H292V121H382V0H50ZM489 740L401 783L500 977L623 916L489 740Z" />
<glyph unicode="&#xce;" glyph-name="Icircumflex" horiz-adv-x="432" d="M50 0V121H140V577H50V698H382V577H292V121H382V0H50ZM535 956L667 797L594 739L473 854L352 739L279 797L411 956H535Z" />
<glyph unicode="&#xcf;" glyph-name="Idieresis" horiz-adv-x="432" d="M50 0V121H140V577H50V698H382V577H292V121H382V0H50ZM363 761Q318 761 301 779T283 824V849Q283 875 300 893T363 912Q408 912 425 894T443 849V824Q443 798 426 780T363 761ZM583 761Q538
761 521 779T503 824V849Q503 875 520 893T583 912Q628 912 645 894T663 849V824Q663 798 646 780T583 761Z" />
<glyph unicode="&#xd0;" glyph-name="Eth" horiz-adv-x="702" d="M82 297H7V411H82V698H345Q414 698 471 676T568 611T630 502T652 349Q652 262 630 197T568 88T471 22T345 0H82V297ZM345 135Q413 135 452 173T491 295V403Q491 487 452 525T345 563H234V411H353V297H234V135H345Z"
/>
<glyph unicode="&#xd1;" glyph-name="Ntilde" horiz-adv-x="724" d="M290 330L223 470H220V0H77V698H243L434 368L501 228H504V698H647V0H481L290 330ZM437 762Q414 762 397 768T360 782Q338 791 320 797T282 804Q265 804 252 798T223 779L171 847Q189 874 217
892T285 911Q308 911 325 905T362 891Q384 882 402 876T440 869Q457 869 470 875T499 894L551 826Q533 799 505 781T437 762Z" />
<glyph unicode="&#xd2;" glyph-name="Ograve" horiz-adv-x="714" d="M357 -12Q288 -12 231 11T134 79T72 192T50 349Q50 438 72 505T134 618T231 687T357 710Q426 710 483 687T580 619T642 506T664 349Q664 260 642 193T580 80T483 11T357 -12ZM357 123Q426 123
464 168T503 297V401Q503 485 465 530T357 575Q288 575 250 530T211 401V297Q211 213 249 168T357 123ZM207 916L330 977L429 783L341 740L207 916Z" />
<glyph unicode="&#xd3;" glyph-name="Oacute" horiz-adv-x="714" d="M357 -12Q288 -12 231 11T134 79T72 192T50 349Q50 438 72 505T134 618T231 687T357 710Q426 710 483 687T580 619T642 506T664 349Q664 260 642 193T580 80T483 11T357 -12ZM357 123Q426 123
464 168T503 297V401Q503 485 465 530T357 575Q288 575 250 530T211 401V297Q211 213 249 168T357 123ZM373 740L285 783L384 977L507 916L373 740Z" />
<glyph unicode="&#xd4;" glyph-name="Ocircumflex" horiz-adv-x="714" d="M357 -12Q288 -12 231 11T134 79T72 192T50 349Q50 438 72 505T134 618T231 687T357 710Q426 710 483 687T580 619T642 506T664 349Q664 260 642 193T580 80T483 11T357 -12ZM357 123Q426
123 464 168T503 297V401Q503 485 465 530T357 575Q288 575 250 530T211 401V297Q211 213 249 168T357 123ZM419 956L551 797L478 739L357 854L236 739L163 797L295 956H419Z" />
<glyph unicode="&#xd5;" glyph-name="Otilde" horiz-adv-x="714" d="M357 -12Q288 -12 231 11T134 79T72 192T50 349Q50 438 72 505T134 618T231 687T357 710Q426 710 483 687T580 619T642 506T664 349Q664 260 642 193T580 80T483 11T357 -12ZM357 123Q426 123
464 168T503 297V401Q503 485 465 530T357 575Q288 575 250 530T211 401V297Q211 213 249 168T357 123ZM433 762Q410 762 393 768T356 782Q334 791 316 797T278 804Q261 804 248 798T219 779L167 847Q185 874 213 892T281 911Q304 911 321 905T358 891Q380 882
398 876T436 869Q453 869 466 875T495 894L547 826Q529 799 501 781T433 762Z" />
<glyph unicode="&#xd6;" glyph-name="Odieresis" horiz-adv-x="714" d="M357 -12Q288 -12 231 11T134 79T72 192T50 349Q50 438 72 505T134 618T231 687T357 710Q426 710 483 687T580 619T642 506T664 349Q664 260 642 193T580 80T483 11T357 -12ZM357 123Q426
123 464 168T503 297V401Q503 485 465 530T357 575Q288 575 250 530T211 401V297Q211 213 249 168T357 123ZM247 761Q202 761 185 779T167 824V849Q167 875 184 893T247 912Q292 912 309 894T327 849V824Q327 798 310 780T247 761ZM467 761Q422 761 405 779T387
824V849Q387 875 404 893T467 912Q512 912 529 894T547 849V824Q547 798 530 780T467 761Z" />
<glyph unicode="&#xd7;" glyph-name="multiply" horiz-adv-x="600" d="M300 217L161 71L79 153L218 299L79 445L161 527L300 381L439 527L521 445L382 299L521 153L439 71L300 217Z" />
<glyph unicode="&#xd8;" glyph-name="Oslash" horiz-adv-x="714" d="M357 -12Q273 -12 207 22L154 -56L62 3L123 93Q88 138 69 202T50 349Q50 438 72 505T134 618T231 687T357 710Q441 710 507 676L560 754L652 695L591 605Q626 560 645 496T664 349Q664 260 642
193T580 80T483 11T357 -12ZM204 294Q204 247 216 211L439 565Q406 586 357 586Q285 586 245 539T204 404V294ZM510 404Q510 451 498 487L275 133Q308 112 357 112Q429 112 469 159T510 294V404Z" />
<glyph unicode="&#xd9;" glyph-name="Ugrave" horiz-adv-x="694" d="M221 698V270Q221 196 250 160T347 123Q415 123 444 159T473 270V698H621V286Q621 209 607 153T559 60T474 6T347 -12Q272 -12 220 5T135 59T88 152T73 286V698H221ZM197 916L320 977L419 783L331
740L197 916Z" />
<glyph unicode="&#xda;" glyph-name="Uacute" horiz-adv-x="694" d="M221 698V270Q221 196 250 160T347 123Q415 123 444 159T473 270V698H621V286Q621 209 607 153T559 60T474 6T347 -12Q272 -12 220 5T135 59T88 152T73 286V698H221ZM363 740L275 783L374 977L497
916L363 740Z" />
<glyph unicode="&#xdb;" glyph-name="Ucircumflex" horiz-adv-x="694" d="M221 698V270Q221 196 250 160T347 123Q415 123 444 159T473 270V698H621V286Q621 209 607 153T559 60T474 6T347 -12Q272 -12 220 5T135 59T88 152T73 286V698H221ZM409 956L541 797L468
739L347 854L226 739L153 797L285 956H409Z" />
<glyph unicode="&#xdc;" glyph-name="Udieresis" horiz-adv-x="694" d="M221 698V270Q221 196 250 160T347 123Q415 123 444 159T473 270V698H621V286Q621 209 607 153T559 60T474 6T347 -12Q272 -12 220 5T135 59T88 152T73 286V698H221ZM237 761Q192 761 175
779T157 824V849Q157 875 174 893T237 912Q282 912 299 894T317 849V824Q317 798 300 780T237 761ZM457 761Q412 761 395 779T377 824V849Q377 875 394 893T457 912Q502 912 519 894T537 849V824Q537 798 520 780T457 761Z" />
<glyph unicode="&#xdd;" glyph-name="Yacute" horiz-adv-x="649" d="M248 0V273L9 698H179L329 420H331L475 698H640L401 274V0H248ZM341 740L253 783L352 977L475 916L341 740Z" />
<glyph unicode="&#xde;" glyph-name="Thorn" horiz-adv-x="656" d="M77 0V698H229V578H407Q456 578 495 562T561 516T604 445T619 355Q619 306 604 265T562 195T495 149T407 132H229V0H77ZM229 264H389Q423 264 442 281T462 333V377Q462 411 443 428T389 446H229V264Z" />
<glyph unicode="&#xdf;" glyph-name="germandbls" horiz-adv-x="692" d="M667 173Q667 130 653 96T613 38T552 1T473 -12Q410 -12 363 6T287 63L371 149Q394 122 418 110T471 98Q498 98 514 112T531 155Q531 181 516 194T465 219L434 229Q382 246 352 279T322
374Q322 434 359 474T463 529V531Q463 589 436 615T353 642Q298 642 271 616T243 531V0H95V410H21V525H95V529Q95 581 113 622T165 693T246 737T349 752Q405 752 451 737T530 694T581 625T599 531V434H543Q496 434 477 424T458 387Q458 363 473 353T520 331L551
321Q605 304 636 270T667 173Z" />
<glyph unicode="&#xe0;" glyph-name="agrave" horiz-adv-x="569" d="M457 0Q417 0 391 25T357 92H351Q339 41 298 15T197 -12Q118 -12 76 30T34 141Q34 224 94 264T259 305H342V338Q342 376 322 398T255 421Q211 421 185 402T142 359L54 437Q86 484 134 510T266
537Q378 537 434 488T490 345V115H539V0H457ZM252 91Q289 91 315 107T342 159V221H270Q183 221 183 162V147Q183 118 201 105T252 91ZM375 755L498 816L597 622L509 579L375 755Z" />
<glyph unicode="&#xe1;" glyph-name="aacute" horiz-adv-x="569" d="M457 0Q417 0 391 25T357 92H351Q339 41 298 15T197 -12Q118 -12 76 30T34 141Q34 224 94 264T259 305H342V338Q342 376 322 398T255 421Q211 421 185 402T142 359L54 437Q86 484 134 510T266
537Q378 537 434 488T490 345V115H539V0H457ZM252 91Q289 91 315 107T342 159V221H270Q183 221 183 162V147Q183 118 201 105T252 91ZM541 579L453 622L552 816L675 755L541 579Z" />
<glyph unicode="&#xe2;" glyph-name="acircumflex" horiz-adv-x="569" d="M457 0Q417 0 391 25T357 92H351Q339 41 298 15T197 -12Q118 -12 76 30T34 141Q34 224 94 264T259 305H342V338Q342 376 322 398T255 421Q211 421 185 402T142 359L54 437Q86 484 134 510T266
537Q378 537 434 488T490 345V115H539V0H457ZM252 91Q289 91 315 107T342 159V221H270Q183 221 183 162V147Q183 118 201 105T252 91ZM587 795L719 636L646 578L525 693L404 578L331 636L463 795H587Z" />
<glyph unicode="&#xe3;" glyph-name="atilde" horiz-adv-x="569" d="M457 0Q417 0 391 25T357 92H351Q339 41 298 15T197 -12Q118 -12 76 30T34 141Q34 224 94 264T259 305H342V338Q342 376 322 398T255 421Q211 421 185 402T142 359L54 437Q86 484 134 510T266
537Q378 537 434 488T490 345V115H539V0H457ZM252 91Q289 91 315 107T342 159V221H270Q183 221 183 162V147Q183 118 201 105T252 91ZM601 601Q578 601 561 607T524 621Q502 630 484 636T446 643Q429 643 416 637T387 618L335 686Q353 713 381 731T449 750Q472
750 489 744T526 730Q548 721 566 715T604 708Q621 708 634 714T663 733L715 665Q697 638 669 620T601 601Z" />
<glyph unicode="&#xe4;" glyph-name="adieresis" horiz-adv-x="569" d="M457 0Q417 0 391 25T357 92H351Q339 41 298 15T197 -12Q118 -12 76 30T34 141Q34 224 94 264T259 305H342V338Q342 376 322 398T255 421Q211 421 185 402T142 359L54 437Q86 484 134 510T266
537Q378 537 434 488T490 345V115H539V0H457ZM252 91Q289 91 315 107T342 159V221H270Q183 221 183 162V147Q183 118 201 105T252 91ZM415 600Q370 600 353 618T335 663V688Q335 714 352 732T415 751Q460 751 477 733T495 688V663Q495 637 478 619T415 600ZM635
600Q590 600 573 618T555 663V688Q555 714 572 732T635 751Q680 751 697 733T715 688V663Q715 637 698 619T635 600Z" />
<glyph unicode="&#xe5;" glyph-name="aring" horiz-adv-x="569" d="M457 0Q417 0 391 25T357 92H351Q339 41 298 15T197 -12Q118 -12 76 30T34 141Q34 224 94 264T259 305H342V338Q342 376 322 398T255 421Q211 421 185 402T142 359L54 437Q86 484 134 510T266
537Q378 537 434 488T490 345V115H539V0H457ZM252 91Q289 91 315 107T342 159V221H270Q183 221 183 162V147Q183 118 201 105T252 91ZM525 558Q494 558 467 568T420 598T389 643T377 701Q377 732 388 758T420 804T467 833T525 844Q556 844 583 834T630 804T661
759T673 701Q673 670 662 644T630 598T583 569T525 558ZM525 633Q550 633 563 646T576 684V718Q576 742 563 755T525 769Q500 769 487 756T474 718V684Q474 660 487 647T525 633Z" />
<glyph unicode="&#xe6;" glyph-name="ae" horiz-adv-x="864" d="M270 225Q230 225 207 210T183 166V152Q183 91 254 91Q289 91 315 107T342 159V225H270ZM675 312V321Q675 369 654 398T587 428Q542 428 517 399T491 320V312H675ZM610 106Q656 106 686 125T739
167L813 75Q778 34 722 11T593 -12Q518 -12 464 17T389 91H383Q375 70 361 51T324 18T270 -4T198 -12Q158 -12 128 -1T76 32T45 81T34 144Q34 186 50 217T97 270T168 301T259 312H342V338Q342 376 322 398T255 421Q211 421 185 402T142 359L54 437Q86 484 134 510T266
537Q314 537 351 520T414 463H420Q444 501 487 519T588 537Q653 537 699 515T773 456T815 371T828 269V225H490V217Q490 166 521 136T610 106Z" />
<glyph unicode="&#xe7;" glyph-name="ccedilla" horiz-adv-x="517" d="M281 537Q361 537 414 501T491 400L371 348Q364 378 342 399T281 420Q236 420 213 391T190 311V213Q190 163 213 134T281 105Q321 105 344 126T379 183L494 133Q468 60 416 25T291 -12L282
-55L286 -59Q298 -56 310 -54T334 -52Q364 -52 385 -68T407 -121Q407 -147 396 -164T367 -192T324 -207T275 -212Q223 -212 194 -198T151 -168L197 -112Q207 -124 223 -132T263 -141Q282 -141 294 -135T307 -116Q307 -110 304 -104T293 -93T270 -83T232 -76L211
-74L225 -7Q133 10 85 81T36 263Q36 326 52 376T99 463T176 518T281 537Z" />
<glyph unicode="&#xe8;" glyph-name="egrave" horiz-adv-x="562" d="M288 -12Q228 -12 181 7T102 62T53 149T36 263Q36 325 52 375T99 462T177 517T282 537Q347 537 393 515T469 456T512 371T526 269V225H189V217Q189 165 217 135T305 104Q351 104 380 122T434
167L508 75Q473 34 417 11T288 -12ZM285 428Q240 428 215 399T189 320V312H373V321Q373 369 352 398T285 428ZM394 755L517 816L616 622L528 579L394 755Z" />
<glyph unicode="&#xe9;" glyph-name="eacute" horiz-adv-x="562" d="M288 -12Q228 -12 181 7T102 62T53 149T36 263Q36 325 52 375T99 462T177 517T282 537Q347 537 393 515T469 456T512 371T526 269V225H189V217Q189 165 217 135T305 104Q351 104 380 122T434
167L508 75Q473 34 417 11T288 -12ZM285 428Q240 428 215 399T189 320V312H373V321Q373 369 352 398T285 428ZM560 579L472 622L571 816L694 755L560 579Z" />
<glyph unicode="&#xea;" glyph-name="ecircumflex" horiz-adv-x="562" d="M288 -12Q228 -12 181 7T102 62T53 149T36 263Q36 325 52 375T99 462T177 517T282 537Q347 537 393 515T469 456T512 371T526 269V225H189V217Q189 165 217 135T305 104Q351 104 380 122T434
167L508 75Q473 34 417 11T288 -12ZM285 428Q240 428 215 399T189 320V312H373V321Q373 369 352 398T285 428ZM606 795L738 636L665 578L544 693L423 578L350 636L482 795H606Z" />
<glyph unicode="&#xeb;" glyph-name="edieresis" horiz-adv-x="562" d="M288 -12Q228 -12 181 7T102 62T53 149T36 263Q36 325 52 375T99 462T177 517T282 537Q347 537 393 515T469 456T512 371T526 269V225H189V217Q189 165 217 135T305 104Q351 104 380 122T434
167L508 75Q473 34 417 11T288 -12ZM285 428Q240 428 215 399T189 320V312H373V321Q373 369 352 398T285 428ZM434 600Q389 600 372 618T354 663V688Q354 714 371 732T434 751Q479 751 496 733T514 688V663Q514 637 497 619T434 600ZM654 600Q609 600 592 618T574
663V688Q574 714 591 732T654 751Q699 751 716 733T734 688V663Q734 637 717 619T654 600Z" />
<glyph unicode="&#xec;" glyph-name="igrave" horiz-adv-x="286" d="M69 0V525H217V0H69ZM-6 755L117 816L216 622L128 579L-6 755Z" />
<glyph unicode="&#xed;" glyph-name="iacute" horiz-adv-x="286" d="M69 0V525H217V0H69ZM160 579L72 622L171 816L294 755L160 579Z" />
<glyph unicode="&#xee;" glyph-name="icircumflex" horiz-adv-x="286" d="M69 0V525H217V0H69ZM206 795L338 636L265 578L144 693L23 578L-50 636L82 795H206Z" />
<glyph unicode="&#xef;" glyph-name="idieresis" horiz-adv-x="286" d="M69 0V525H217V0H69ZM34 600Q-11 600 -28 618T-46 663V688Q-46 714 -29 732T34 751Q79 751 96 733T114 688V663Q114 637 97 619T34 600ZM254 600Q209 600 192 618T174 663V688Q174 714 191
732T254 751Q299 751 316 733T334 688V663Q334 637 317 619T254 600Z" />
<glyph unicode="&#xf0;" glyph-name="eth" horiz-adv-x="603" d="M479 693L406 649Q478 574 516 481T555 278Q555 202 537 147T485 57T405 5T301 -12Q240 -12 192 6T110 59T59 142T41 253Q41 309 55 354T95 432T157 482T239 500Q295 500 333 474T395 402L402 405Q388
453 360 496T290 581L201 528L150 588L230 635Q193 665 153 691T71 740H297Q310 732 322 723T346 704L429 753L479 693ZM298 98Q346 98 374 128T402 216V270Q402 327 374 357T298 388Q250 388 222 358T194 270V216Q194 159 222 129T298 98Z" />
<glyph unicode="&#xf1;" glyph-name="ntilde" horiz-adv-x="596" d="M69 0V525H217V436H223Q237 477 272 507T369 537Q450 537 491 483T533 329V0H385V317Q385 368 369 392T312 417Q294 417 277 413T247 398T225 374T217 340V0H69ZM376 601Q353 601 336 607T299
621Q277 630 259 636T221 643Q204 643 191 637T162 618L110 686Q128 713 156 731T224 750Q247 750 264 744T301 730Q323 721 341 715T379 708Q396 708 409 714T438 733L490 665Q472 638 444 620T376 601Z" />
<glyph unicode="&#xf2;" glyph-name="ograve" horiz-adv-x="564" d="M282 -12Q224 -12 179 7T102 62T53 149T36 263Q36 326 53 377T101 463T178 518T282 537Q340 537 385 518T462 464T511 377T528 263Q528 200 511 149T463 62T386 7T282 -12ZM282 105Q326 105
350 132T374 209V316Q374 366 350 393T282 420Q238 420 214 393T190 316V209Q190 159 214 132T282 105ZM388 755L511 816L610 622L522 579L388 755Z" />
<glyph unicode="&#xf3;" glyph-name="oacute" horiz-adv-x="564" d="M282 -12Q224 -12 179 7T102 62T53 149T36 263Q36 326 53 377T101 463T178 518T282 537Q340 537 385 518T462 464T511 377T528 263Q528 200 511 149T463 62T386 7T282 -12ZM282 105Q326 105
350 132T374 209V316Q374 366 350 393T282 420Q238 420 214 393T190 316V209Q190 159 214 132T282 105ZM554 579L466 622L565 816L688 755L554 579Z" />
<glyph unicode="&#xf4;" glyph-name="ocircumflex" horiz-adv-x="564" d="M282 -12Q224 -12 179 7T102 62T53 149T36 263Q36 326 53 377T101 463T178 518T282 537Q340 537 385 518T462 464T511 377T528 263Q528 200 511 149T463 62T386 7T282 -12ZM282 105Q326
105 350 132T374 209V316Q374 366 350 393T282 420Q238 420 214 393T190 316V209Q190 159 214 132T282 105ZM600 795L732 636L659 578L538 693L417 578L344 636L476 795H600Z" />
<glyph unicode="&#xf5;" glyph-name="otilde" horiz-adv-x="564" d="M282 -12Q224 -12 179 7T102 62T53 149T36 263Q36 326 53 377T101 463T178 518T282 537Q340 537 385 518T462 464T511 377T528 263Q528 200 511 149T463 62T386 7T282 -12ZM282 105Q326 105
350 132T374 209V316Q374 366 350 393T282 420Q238 420 214 393T190 316V209Q190 159 214 132T282 105ZM614 601Q591 601 574 607T537 621Q515 630 497 636T459 643Q442 643 429 637T400 618L348 686Q366 713 394 731T462 750Q485 750 502 744T539 730Q561 721
579 715T617 708Q634 708 647 714T676 733L728 665Q710 638 682 620T614 601Z" />
<glyph unicode="&#xf6;" glyph-name="odieresis" horiz-adv-x="564" d="M282 -12Q224 -12 179 7T102 62T53 149T36 263Q36 326 53 377T101 463T178 518T282 537Q340 537 385 518T462 464T511 377T528 263Q528 200 511 149T463 62T386 7T282 -12ZM282 105Q326 105
350 132T374 209V316Q374 366 350 393T282 420Q238 420 214 393T190 316V209Q190 159 214 132T282 105ZM428 600Q383 600 366 618T348 663V688Q348 714 365 732T428 751Q473 751 490 733T508 688V663Q508 637 491 619T428 600ZM648 600Q603 600 586 618T568 663V688Q568
714 585 732T648 751Q693 751 710 733T728 688V663Q728 637 711 619T648 600Z" />
<glyph unicode="&#xf7;" glyph-name="divide" horiz-adv-x="600" d="M67 247V365H532V247H67ZM300 28Q253 28 233 48T213 97V121Q213 149 233 169T300 190Q347 190 367 170T387 121V97Q387 69 367 49T300 28ZM300 420Q253 420 233 440T213 489V513Q213 541 233
561T300 582Q347 582 367 562T387 513V489Q387 461 367 441T300 420Z" />
<glyph unicode="&#xf8;" glyph-name="oslash" horiz-adv-x="572" d="M14 10L81 93Q40 161 40 263Q40 326 57 377T105 463T182 518T286 537Q361 537 418 503L478 575L558 515L490 431Q532 365 532 262Q532 199 515 148T467 62T390 7T286 -12Q248 -12 215 -4T154
21L94 -50L14 10ZM286 96Q332 96 357 128T383 214V312L222 119Q247 96 286 96ZM189 214L349 406Q324 429 286 429Q240 429 215 397T189 311V214Z" />
<glyph unicode="&#xf9;" glyph-name="ugrave" horiz-adv-x="596" d="M379 88H374Q367 68 356 50T326 18T284 -4T227 -12Q146 -12 105 41T63 195V525H211V208Q211 160 228 134T286 108Q303 108 320 113T350 127T371 151T379 184V525H527V0H379V88ZM402 755L525
816L624 622L536 579L402 755Z" />
<glyph unicode="&#xfa;" glyph-name="uacute" horiz-adv-x="596" d="M379 88H374Q367 68 356 50T326 18T284 -4T227 -12Q146 -12 105 41T63 195V525H211V208Q211 160 228 134T286 108Q303 108 320 113T350 127T371 151T379 184V525H527V0H379V88ZM568 579L480
622L579 816L702 755L568 579Z" />
<glyph unicode="&#xfb;" glyph-name="ucircumflex" horiz-adv-x="596" d="M379 88H374Q367 68 356 50T326 18T284 -4T227 -12Q146 -12 105 41T63 195V525H211V208Q211 160 228 134T286 108Q303 108 320 113T350 127T371 151T379 184V525H527V0H379V88ZM614 795L746
636L673 578L552 693L431 578L358 636L490 795H614Z" />
<glyph unicode="&#xfc;" glyph-name="udieresis" horiz-adv-x="596" d="M379 88H374Q367 68 356 50T326 18T284 -4T227 -12Q146 -12 105 41T63 195V525H211V208Q211 160 228 134T286 108Q303 108 320 113T350 127T371 151T379 184V525H527V0H379V88ZM442 600Q397
600 380 618T362 663V688Q362 714 379 732T442 751Q487 751 504 733T522 688V663Q522 637 505 619T442 600ZM662 600Q617 600 600 618T582 663V688Q582 714 599 732T662 751Q707 751 724 733T742 688V663Q742 637 725 619T662 600Z" />
<glyph unicode="&#xfd;" glyph-name="yacute" horiz-adv-x="534" d="M390 525H528L326 -81Q306 -142 270 -171T165 -200H73V-85H172L190 -27L6 525H153L230 280L268 128H274L313 280L390 525ZM544 579L456 622L555 816L678 755L544 579Z" />
<glyph unicode="&#xfe;" glyph-name="thorn" horiz-adv-x="608" d="M69 740H217V437H222Q233 481 272 509T363 537Q463 537 514 467T565 263Q565 129 514 59T363 -12Q337 -12 314 -5T273 16T241 48T222 88H217V-200H69V740ZM314 108Q356 108 383 137T411 217V308Q411
358 384 387T314 417Q272 417 245 397T217 340V185Q217 149 244 129T314 108Z" />
<glyph unicode="&#xff;" glyph-name="ydieresis" horiz-adv-x="534" d="M390 525H528L326 -81Q306 -142 270 -171T165 -200H73V-85H172L190 -27L6 525H153L230 280L268 128H274L313 280L390 525ZM418 600Q373 600 356 618T338 663V688Q338 714 355 732T418 751Q463
751 480 733T498 688V663Q498 637 481 619T418 600ZM638 600Q593 600 576 618T558 663V688Q558 714 575 732T638 751Q683 751 700 733T718 688V663Q718 637 701 619T638 600Z" />
<glyph unicode="&#x2013;" glyph-name="endash" horiz-adv-x="588" d="M36 244V364H552V244H36Z" />
<glyph unicode="&#x2014;" glyph-name="emdash" horiz-adv-x="780" d="M36 244V364H744V244H36Z" />
<glyph unicode="&#x2018;" glyph-name="quoteleft" horiz-adv-x="300" d="M148 440Q103 440 83 460T62 512V533Q62 562 70 591T93 648T128 698T171 740H264Q231 710 208 679T172 610Q204 604 219 584T234 537V512Q234 481 214 461T148 440Z" />
<glyph unicode="&#x2019;" glyph-name="quoteright" horiz-adv-x="300" d="M152 750Q197 750 217 730T238 678V657Q238 628 230 599T207 542T172 492T129 450H36Q69 480 92 511T128 580Q96 586 81 606T66 653V678Q66 709 86 729T152 750Z" />
<glyph unicode="&#x201a;" glyph-name="quotesinglbase" horiz-adv-x="304" d="M155 183Q201 183 220 162T240 109V87Q240 58 232 29T210 -26T176 -76T134 -117H38Q72 -87 96 -56T132 13Q99 19 85 40T70 87V109Q70 141 89 162T155 183Z" />
<glyph unicode="&#x201c;" glyph-name="quotedblleft" horiz-adv-x="535" d="M148 440Q103 440 83 460T62 512V533Q62 562 70 591T93 648T128 698T171 740H264Q231 710 208 679T172 610Q204 604 219 584T234 537V512Q234 481 214 461T148 440ZM383 440Q338 440
318 460T297 512V533Q297 562 305 591T328 648T363 698T406 740H499Q466 710 443 679T407 610Q439 604 454 584T469 537V512Q469 481 449 461T383 440Z" />
<glyph unicode="&#x201d;" glyph-name="quotedblright" horiz-adv-x="535" d="M152 750Q197 750 217 730T238 678V657Q238 628 230 599T207 542T172 492T129 450H36Q69 480 92 511T128 580Q96 586 81 606T66 653V678Q66 709 86 729T152 750ZM387 750Q432 750 452
730T473 678V657Q473 628 465 599T442 542T407 492T364 450H271Q304 480 327 511T363 580Q331 586 316 606T301 653V678Q301 709 321 729T387 750Z" />
<glyph unicode="&#x201e;" glyph-name="quotedblbase" horiz-adv-x="539" d="M155 183Q201 183 220 162T240 109V87Q240 58 232 29T210 -26T176 -76T134 -117H38Q72 -87 96 -56T132 13Q99 19 85 40T70 87V109Q70 141 89 162T155 183ZM390 183Q436 183 455 162T475
109V87Q475 58 467 29T445 -26T411 -76T369 -117H273Q307 -87 331 -56T367 13Q334 19 320 40T305 87V109Q305 141 324 162T390 183Z" />
<glyph unicode="&#x2022;" glyph-name="bullet" horiz-adv-x="430" d="M215 150Q173 150 144 160T97 187T71 229T62 281V317Q62 345 70 369T97 410T144 438T215 448Q257 448 286 438T333 411T359 369T368 317V281Q368 253 360 229T333 188T286 160T215 150Z" />
<glyph unicode="&#x2039;" glyph-name="guilsinglleft" horiz-adv-x="317" d="M224 49L38 209V335L224 495L267 403L147 272L267 141L224 49Z" />
<glyph unicode="&#x203a;" glyph-name="guilsinglright" horiz-adv-x="317" d="M50 141L170 272L50 403L93 495L279 335V209L93 49L50 141Z" />
</font>
</defs>
</svg>
